<?xml version="1.0" standalone="no"?>
<!DOCTYPE svg PUBLIC "-//W3C//DTD SVG 1.1//EN" "http://www.w3.org/Graphics/SVG/1.1/DTD/svg11.dtd" >
<!--
2013-9-30: Created.
-->
<svg>
<metadata>
Created by iconfont
</metadata>
<defs>

<font id="iconfont" horiz-adv-x="1024" >
  <font-face
    font-family="iconfont"
    font-weight="500"
    font-stretch="normal"
    units-per-em="1024"
    ascent="896"
    descent="-128"
  />
    <missing-glyph />
    
    <glyph glyph-name="clock-o" unicode="&#58901;" d="M832.13193359 90.27128905999996c0-14.58061523-11.81469727-26.39478516-26.3953125-26.39478515-14.58114258 0-26.39583984 11.81416992-26.39583984 26.39478515 0 14.57956055 11.81469727 26.39583984 26.39583984 26.39583985 14.58061523 0 26.3953125-11.8162793 26.3953125-26.39583985M700.38564453 43.01601562999997c-56.93774414-31.4615918-120.98847656-48.19851562-187.54189453-48.19851563-214.47421875 0-388.33769531 173.86523438-388.33769531 388.33945312 0 214.47509766 173.86347656 388.34033203 388.33769531 388.34033204 214.47597656 0 388.34033203-173.86435547 388.34033203-388.34033204 0-71.56283203-19.35949219-140.21191406-55.48464844-200.1524414-8.5952373-14.25788086-4.00366406-32.77652344 10.25367188-41.37178711 14.25788086-8.59418261 32.78390625-4.00260937 41.37916992 10.25472656 41.74532227 69.26888672 64.13756836 148.66083984 64.13756836 231.26923828 0 247.76982422-200.85732422 448.62539063-448.62714844 448.62539063-247.76630859 0-448.62451172-200.85644531-448.62451172-448.62539063 0-247.76894531 200.85732422-448.62714844 448.62451172-448.62714843 76.81526367 0 150.89150391 19.35421875 216.69697266 55.72432617 14.56637695 8.04914648 19.85537109 26.38845703 11.79984375 40.96116211-8.04861035 14.5669043-26.38740234 19.84957031-40.95483399 11.80089843Zm0-1e-8M482.70693359 594.1526367199999V372.05390624999995a30.15606445 30.15606445 0 0 1 9.45615235-21.92545898l196.41621094-185.31298829c12.10939453-11.42630859 31.18798828-10.86539062 42.60735351 1.23612891 11.42683594 12.10833984 10.87277344 31.18851563-1.23612891 42.61429688L533.52792969 393.97910156l9.45667969-21.92545898V594.1526367199999c0 16.64490234-13.49586914 30.14024414-30.14024415 30.14024414-16.64332031-0.0005291-30.13708008-13.49586914-30.13708007-30.14024414Zm0 0"  horiz-adv-x="1024" />

    
    <glyph glyph-name="location" unicode="&#58902;" d="M904.72727281 471.27272719c0 218.18181844-174.54545437 392.72727281-392.72727281 392.72727281S119.27272719 689.45454562 119.27272719 471.27272719c0-161.45454563 213.81818156-401.45454563 314.18181843-506.18181844H315.63636406V-96h392.72727188v61.09090875h-122.1818175C690.90909125 69.81818155999997 904.72727281 309.81818155999997 904.72727281 471.27272719zM189.09090875 471.27272719c0 178.90909125 144 322.90909125 322.90909125 322.90909125 178.90909125 0 322.90909125-144 322.90909125-322.90909125 0-139.63636406-213.81818156-362.18181844-322.90909125-480-109.09090875 117.81818156-322.90909125 340.36363594-322.90909125 480zM516.36363594 676.36363594c-96 0-174.54545437-78.54545438-174.54545438-174.54545438s78.54545438-174.54545437 174.54545438-174.54545437 174.54545437 78.54545438 174.54545531 174.54545437-78.54545438 174.54545437-174.54545531 174.54545438z m0-279.27272719c-56.72727281 0-104.72727281 48-104.72727188 104.72727281s48 104.72727281 104.72727188 104.72727281c56.72727281 0 104.72727281-48 104.72727281-104.72727281s-48-104.72727281-104.72727281-104.72727281z"  horiz-adv-x="1024" />

    
    <glyph glyph-name="lock" unicode="&#58897;" d="M852.80953707 520.72134827h-68.22477974v68.22477973c0 150.71799467-122.1811232 272.8991168-272.8991168 272.89911787S238.78761493 739.66303147 238.78761493 588.946128v-68.22477973h-68.2291456c-37.6773152 0-68.2204128-30.5430976-68.22041386-68.2204128V-25.075794129999963c0-37.6773152 30.5430976-68.2204128 68.22041386-68.22041387h682.25106774c37.6773152 0 68.2204128 30.5430976 68.2204128 68.22041387V452.50093547c0 37.676224-30.5430976 68.2204128-68.2204128 68.2204128z m-545.79714347 68.22477973c0 113.038496 91.63584213 204.67433813 204.67433813 204.67433813S716.36106987 701.9846239999999 716.36106987 588.946128v-68.22477973H307.0123936v68.22477973z m545.79714347-580.18568853c0-18.68802667-15.14929813-33.8373248-33.8373248-33.83732587H204.40016c-18.68802667 0-33.8373248 15.14929813-33.8373248 33.83732587V418.6592448c0 18.68802667 15.14929813 33.8373248 33.8373248 33.8373248h614.57205227c18.68802667 0 33.8373248-15.14929813 33.8373248-33.8373248v-409.89880533zM511.68673173 384.27178987c-75.35899733 0-136.4495584-61.09056107-136.4495584-136.4495584 0-63.5792416 43.4842368-117.00182933 102.3349856-132.1500352v-38.68697814c0-18.68802667 15.14929813-33.8373248 33.8373248-33.8373248h0.55013014c18.68802667 0 33.8373248 15.14929813 33.8373248 33.8373248v38.68588694c58.85293227 15.14711467 102.33935253 68.5707936 102.33935146 132.1511264 0 75.35899733-61.09056107 136.4495584-136.4495584 136.4495584z m0-204.67433814c-37.67949867 0-68.22477973 30.54528107-68.22477973 68.22477974 0 37.67949867 30.54528107 68.22477973 68.22477973 68.22477973 37.67949867 0 68.22477973-30.54528107 68.22477974-68.22477973 0-37.67949867-30.54528107-68.22477973-68.22477974-68.22477974z"  horiz-adv-x="1024" />

    
    <glyph glyph-name="zhibo" unicode="&#58950;" d="M506.368 667.136c-14.336-14.336-37.376-14.336-51.2 0L347.136 775.168c-14.336 14.336-14.336 37.376 0 51.2 14.336 14.336 37.376 14.336 51.2 0l108.032-108.032c14.336-14.336 14.336-37.376 0-51.2zM489.984 668.16c-14.336 14.336-14.336 37.376 0 51.2l165.888 165.888c14.336 14.336 37.376 14.336 51.2 0 14.336-14.336 14.336-37.376 0-51.2l-165.888-165.888c-14.336-14.336-37.376-14.336-51.2 0zM894.976 98.304H108.544c-28.16 0-51.2 23.04-51.2 51.2V678.912c0 28.16 23.04 51.2 51.2 51.2h786.432c28.16 0 51.2-23.04 51.2-51.2v-528.896c0-28.672-23.04-51.712-51.2-51.712zM223.744-106.496a278.016 21.504 0 1 1 556.032 0 278.016 21.504 0 1 1-556.032 0ZM846.336 160.768H157.184c-18.944 0-34.304 15.36-34.304 34.304V633.344c0 18.944 15.36 34.304 34.304 34.304h689.664c18.944 0 34.304-15.36 34.304-34.304V194.56c-0.512-18.432-15.872-33.792-34.816-33.792zM430.592 316.928H389.12c-2.56 0-5.12 2.048-5.12 5.12v184.32c0 2.56 2.048 5.12 5.12 5.12h41.472c2.56 0 5.12-2.048 5.12-5.12v-184.32c0-3.072-2.56-5.12-5.12-5.12zM583.168 506.368v-20.48l-25.6-103.424c-1.536-4.608-8.192-4.608-9.216 0l-25.6 103.424v20.48c0 2.56-2.048 5.12-5.12 5.12H476.16c-2.56 0-5.12-2.048-5.12-5.12v-25.6l44.032-163.84h75.264-10.24 10.24l44.032 163.328v25.6c0 2.56-2.048 5.12-5.12 5.12h-41.472c-2.56 0.512-4.608-1.536-4.608-4.608zM279.04 373.248v133.12c0 2.56-2.048 5.12-5.12 5.12h-41.472c-2.56 0-5.12-2.048-5.12-5.12v-184.832c0-2.56 2.048-5.12 5.12-5.12H346.624c2.56 0 5.12 2.048 5.12 5.12v41.472c0 2.56-2.048 5.12-5.12 5.12H284.16c-2.56 0-5.12 2.048-5.12 5.12zM780.8 470.528v35.84c0 2.56-2.048 5.12-5.12 5.12h-101.888c-2.56 0-5.12-2.048-5.12-5.12v-184.832c0-2.56 2.048-5.12 5.12-5.12h101.888c2.56 0 5.12 2.048 5.12 5.12v36.352c0 2.56-2.048 5.12-5.12 5.12h-50.688c-2.56 0-5.12 2.048-5.12 5.12v20.48c0 2.56 2.048 5.12 5.12 5.12h50.688c2.56 0 5.12 2.048 5.12 5.12v30.72c0 2.56-2.048 5.12-5.12 5.12h-50.688c-2.56 0-5.12 2.048-5.12 5.12v20.48c0 2.56 2.048 5.12 5.12 5.12h50.688c2.56 0 5.12 2.048 5.12 5.12zM804.864 168.448m-194.048 0a194.048 194.048 0 1 1 388.096 0 194.048 194.048 0 1 1-388.096 0ZM804.864 168.448m-176.64 0a176.64 176.64 0 1 1 353.28 0 176.64 176.64 0 1 1-353.28 0ZM881.664 144.896l-101.888-58.368c-13.824-8.192-31.744 2.048-31.744 18.432v117.248c0 16.384 17.408 26.624 31.744 18.432l101.376-58.368c14.336-8.704 14.336-29.184 0.512-37.376z"  horiz-adv-x="1024" />

    
    <glyph glyph-name="yinletiaodongzhuangtai_huaban" unicode="&#58891;" d="M166.565383 596.182311m66.626153 0l0 0q66.626153 0 66.626153-66.626153l0-499.696148q0-66.626153-66.626153-66.626154l0 0q-66.626153 0-66.626153 66.626154l0 499.696148q0 66.626153 66.626153 66.626153ZM466.383072 263.051545m66.626153 0l0 0q66.626153 0 66.626153-66.626153l0-166.565382q0-66.626153-66.626153-66.626154l0 0q-66.626153 0-66.626153 66.626154l0 166.565382q0 66.626153 66.626153 66.626153ZM766.200761 829.373847m66.626153 0l0 0q66.626153 0 66.626153-66.626153l0-732.887684q0-66.626153-66.626153-66.626154l0 0q-66.626153 0-66.626153 66.626154l0 732.887684q0 66.626153 66.626153 66.626153ZM1066.01845 529.556158m66.626153 0l0 0q66.626153 0 66.626153-66.626153l0-433.069995q0-66.626153-66.626153-66.626154l0 0q-66.626153 0-66.626153 66.626154l0 433.069995q0 66.626153 66.626153 66.626153Z"  horiz-adv-x="1332" />

    
    <glyph glyph-name="file" unicode="&#58920;" d="M386.18453333 416.02616888H178.60721778v-41.51296H386.18453333v41.51296z m0 124.54684445H178.60721778v-41.51523556H386.18453333v41.51523556zM178.60721778 125.41951999000003H635.27822222v41.51296H178.60721778v-41.51296z m595.89518222 346.80149334L518.28280889 748.15260444H116.33436445c-45.85585778 0-83.03047111-37.17461333-83.03047112-83.03160889v-664.24832c0-45.85813333 37.17461333-83.03160889 83.03047112-83.03160889h581.2167111c45.85813333 0 83.03160889 37.17347555 83.0316089 83.03160889V457.54367999l-7.33866667 7.33866667 1.25838222 7.33866667zM531.48899555 672.15018666l181.73269334-193.84888889H573.00536889c-22.92736 0-41.51523555 18.58673778-41.51523556 41.51523556V672.15018666z m207.57731556-671.27751111c0-22.92849778-18.58673778-41.51751111-41.51523556-41.51751111H116.33436445c-22.92736 0-41.51523555 18.58901333-41.51523556 41.51751111V665.12099555c0 22.92736 18.58901333 41.51296 41.51523556 41.51296h373.63939555V519.8165333300001c0-45.85813333 37.17461333-83.03160889 83.03160889-83.03160889H739.06631111v-435.91224889zM178.60721778 249.96408887999996H635.27822222v41.51751111H178.60721778v-41.51751111z m802.21297777 339.46396445l1.25952 7.33980444-256.22072888 275.92931556H323.91168c-45.85585778 0-83.03047111-37.17347555-83.03047111-83.03160889h41.51751111c0 22.92849778 18.58446222 41.51751111 41.51296 41.51751111h373.63939555v-186.82197334c0-45.85585778 37.17461333-83.03160889 83.0316089-83.03160888h166.06208v-435.91111112c0-22.92849778-18.58673778-41.51751111-41.51523556-41.5175111h-83.03160889v-41.51523556h83.03160889c45.85813333 0 83.03160889 37.17688889 83.03160889 83.03274666V582.08938666l-7.34094223 7.33866667z m-200.2375111 13.42008888c-22.92849778 0-41.51523555 18.58673778-41.51523556 41.51296V796.69589333l181.73383111-193.84888889H780.58268445z"  horiz-adv-x="1024" />

    
    <glyph glyph-name="online" unicode="&#59158;" d="M760.73061 168.84098500000005h-47.325822a194.515523 194.515523 0 0 0-150.61123-76.744576 183.163721 183.163721 0 0 0-144.855388 76.744576h-47.645591a225.820915 225.820915 0 0 1 192.500979-122.215737 233.815142 233.815142 0 0 1 197.937052 122.215737z m287.79216 338.955211A495.833915 495.833915 0 0 1 562.473788 895.995843a504.147911 504.147911 0 0 1-492.444362-388.295578 73.962585 73.962585 0 0 1-70.029426-73.546885v-193.044586a73.962585 73.962585 0 0 1 74.506193-73.546885h61.715429a73.962585 73.962585 0 0 1 74.506193 73.546885v193.044586a73.866654 73.866654 0 0 1-63.953813 72.811416 431.304517 431.304517 0 0 0 415.699786 311.295187 423.182383 423.182383 0 0 0 409.624175-311.35914 73.738747 73.738747 0 0 1-63.634044-72.747463v-193.076563a73.259093 73.259093 0 0 1 41.889747-66.192196c-3.197691-45.726977-17.587299-66.256151-59.477046-114.893026a289.167167 289.167167 0 0 0-125.029705-85.730087 60.052631 60.052631 0 0 1-53.721203 26.029202l-111.919174-7.450619a60.212515 60.212515 0 1 1 8.313996-120.137239l111.919173 7.482597a60.180538 60.180538 0 0 1 55.959587 55.639817 342.568601 342.568601 0 0 1 142.936773 99.927834A256.390838 256.390838 0 0 1 991.284107 167.52993200000003h53.401434a73.962585 73.962585 0 0 1 74.506193 73.546885v193.076563a74.026539 74.026539 0 0 1-70.668964 73.546885z m-563.113327-89.887085v79.558544a43.328709 43.328709 0 0 1-86.657417 0v-79.558544a43.328709 43.328709 0 0 1 86.657417 0z m235.350034 0v79.558544a43.328709 43.328709 0 0 1-86.657418 0v-79.558544a43.328709 43.328709 0 0 1 86.657418 0z"  horiz-adv-x="1120" />

    
    <glyph glyph-name="search" unicode="&#58912;" d="M945.6-17.299999999999955L686.8 241.5c58.5 66.1 92.5 154.1 88.4 249.3-8.3 189.6-164.5 337.7-352.4 337.7-5.2 0-10.4-0.1-15.6-0.3C212.4 819.7 61.4 655 69.8 460.2 78 270.6 234.3 122.5 422.2 122.5c5.2 0 10.4 0.1 15.6 0.3 79.6 3.5 151.9 33 209 80.1l259.5-259.5c5.4-5.4 12.5-8.1 19.6-8.1 7.1 0 14.2 2.7 19.6 8.1 11 10.8 11 28.4 0.1 39.3zM435.2 182.79999999999995c-4.3-0.2-8.7-0.3-13-0.3-75.6 0-147.4 28.8-202.1 81.1-54.9 52.5-87 123.2-90.3 199.1-1.7 39.5 4.3 78.2 18 114.9 13.2 35.5 33 67.7 58.7 95.8 25.7 28.1 56.1 50.5 90.3 66.8 35.4 16.8 73.4 26.2 112.9 27.9 4.3 0.2 8.7 0.3 13 0.3 75.6 0 147.3-28.8 202.1-81.2 54.9-52.5 87-123.2 90.3-199.1 1.7-39.5-4.3-78.2-18-114.9-13.2-35.5-33-67.7-58.7-95.8-25.7-28.1-56.1-50.5-90.3-66.8-35.4-16.7-73.3-26.1-112.9-27.8z"  horiz-adv-x="1024" />

    
    <glyph glyph-name="convert-coupon" unicode="&#58893;" d="M1285.43854166 503.7h19.8V694.5c-0.45 56.25-45.9 101.25-101.69999999 101.25H242.78854166C186.53854166 796.2 141.08854167 750.75 141.08854167 694.5v-190.8h19.79999999c66.15-2.25 117.9-58.05 115.20000001-124.2-2.25-62.55-52.65-112.95-115.20000001-115.2H141.08854167V73.5c0.45-56.25 45.9-101.25 101.69999999-101.25h960.75000001c56.25 0 101.7 45 101.69999999 101.25v190.8h-19.8c-66.15 3.15-117.45 58.95-114.29999999 125.1 2.7 62.1 52.2 111.6 114.29999999 114.3zM378.23854166 86.54999999999995h-40.95v83.25h40.95v-83.25z m0 125.1h-40.95v83.25h40.95v-83.25z m0 125.1h-40.95V420.45h40.95v-83.7z m0 125.1h-40.95V545.55h40.95v-83.7z m0 125.1h-40.95V670.65h40.95v-83.7z m345.15-500.4c-127.8 0.9-239.4 85.5-274.49999999 208.35-5.85 17.1-10.35 34.65-13.5 52.65v9.9c0 11.25 9 20.7 20.69999999 20.7h164.7c11.25 0 20.7-9.45 20.7-20.7v-41.85c0-11.25-9-20.7-20.7-20.7h-85.49999999c43.65-103.95 163.8-153 267.74999999-108.9 49.05 20.7 88.2 59.85 108.90000001 108.9h86.4c-35.55-122.4-147.15-207.45-274.95000001-208.35z m288 312.75c0-11.25-9-20.7-20.7-20.7h-164.7c-11.25 0-20.7 9.45-20.69999999 20.7v41.85c0 11.25 9 20.7 20.69999999 20.7h85.5c-43.65 103.95-163.8 153-267.75 108.9-49.05-20.7-88.2-59.85-108.9-108.9H448.88854167c42.3 151.65 199.8 240.3 351.44999999 198 95.85-27 171-101.7 198.00000001-198 5.85-17.1 10.35-35.1 13.5-52.65v-9.9h-0.45000001z m98.1-312.75h-40.94999999v83.25h40.94999999v-83.25z m0 125.1h-40.94999999v83.25h40.94999999v-83.25z m0 125.1h-40.94999999V420.45h40.94999999v-83.7z m0 125.1h-40.94999999V545.55h40.94999999v-83.7z m0 125.1h-40.94999999V670.65h40.94999999v-83.7z"  horiz-adv-x="1446" />

    
    <glyph glyph-name="password" unicode="&#58951;" d="M508.642623 889.285246c-278.662295 0-503.606557-224.944262-503.606557-503.606557 0-278.662295 224.944262-503.606557 503.606557-503.606557 278.662295 0 503.606557 224.944262 503.606557 503.606557C1012.24918 664.3409839999999 787.304918 889.285246 508.642623 889.285246zM777.232787 142.26885200000004c0-38.609836-33.57377-67.147541-72.183607-67.147541L303.842623 75.12131099999999c-38.609836 0-82.255738 26.859016-82.255738 67.147541L221.586885 442.754098l68.82623 0 0 43.645902c0 117.508197 97.363934 214.872131 214.872131 214.872131 115.829508 0 214.872131-94.006557 214.872131-214.872131L720.157377 442.754098l58.754098 0L778.911475 142.26885200000004zM503.606557 657.62623c-92.327869 0-171.22623-78.898361-171.22623-171.22623L332.380328 442.754098l342.452459 0 0 43.645902C674.832787 582.085246 595.934426 657.62623 503.606557 657.62623zM512 328.60327900000004l-15.108197 0c-11.75082 0-21.822951-10.072131-21.822951-21.822951l0-100.721311c0-11.75082 10.072131-21.822951 21.822951-21.822951l15.108197 0c11.75082 0 21.822951 10.072131 21.822951 21.822951l0 100.721311C532.144262 320.209836 523.75082 328.60327900000004 512 328.60327900000004z"  horiz-adv-x="1024" />

    
    <glyph glyph-name="mobile" unicode="&#58900;" d="M512 169.89090899999997c-23.272727 0-41.890909-18.618182-41.890909-41.890909s18.618182-41.890909 41.890909-41.890909 41.890909 18.618182 41.890909 41.890909-18.618182 41.890909-41.890909 41.890909zM512 896C228.072727 896 0 667.927273 0 384s228.072727-512 512-512 512 228.072727 512 512S795.927273 896 512 896z m214.109091-788.945455c0-34.909091-27.927273-62.836364-62.836364-62.836363H363.054545c-34.909091 0-62.836364 27.927273-62.836363 62.836363V660.945455c0 34.909091 27.927273 62.836364 62.836363 62.836363h297.89091c34.909091 0 62.836364-27.927273 62.836363-62.836363v-553.89091zM342.109091 640h342.109091v-425.890909H342.109091z"  horiz-adv-x="1024" />

    
    <glyph glyph-name="camera" unicode="&#58888;" d="M515.98340233 525.10096866c-97.017981 0-176.33195-78.605809-176.33195-176.331951s78.605809-176.33195 176.33195-176.33195c97.017981 0 176.33195 78.605809 176.33195 176.33195S613.00138333 525.10096866 515.98340233 525.10096866m0 0zM938.04702633 657.52697066h-184.121715c-9.914246 29.742739-43.197787 119.679115-92.060858 119.679115H370.10235133c-45.322268 0-82.146611-89.936376-92.769018-119.679115H93.91977833C59.21991733 657.52697066 31.60165933 627.78423266 31.60165933 591.66804966v-512.70816c0-36.824343 27.618257-65.858921 62.318119-65.858921H938.04702633c34.699862 0 62.318119 29.742739 62.318119 65.858921V590.95988966c0 36.824343-28.326418 66.567082-62.318119 66.567081m-422.063624-528.28769c-121.803596 0-220.237898 98.434302-220.237897 220.237898s98.434302 220.237898 220.237897 220.237897c121.803596 0 220.237898-98.434302 220.237898-220.237897s-99.142462-220.237898-220.237898-220.237898m315.131397 395.861688c-20.536653 0-36.824343 16.28769-36.824343 36.824343 0 20.536653 16.28769 36.824343 36.824343 36.824343 20.536653 0 36.824343-16.28769 36.824343-36.824343 0-20.536653-16.28769-36.824343-36.824343-36.824343m0 0zM246.17427433 714.1798066599999c0-13.455048-10.622407-24.077455-24.077456-24.077455H112.33195033C98.87690133 690.81051166 88.25449533 701.43291866 88.25449533 714.1798066599999c0 13.455048 10.622407 24.077455 24.077455 24.077455H222.80497933c12.746888 0 23.369295-10.622407 23.369295-24.077455m0 0z"  horiz-adv-x="1024" />

    
    <glyph glyph-name="gift" unicode="&#58911;" d="M106.24608483-12.37610041000005c0-37.27956309 30.21345678-67.49185593 67.47788402-67.49185593l219.52666738 0L393.25063737 354.98110976 106.24608483 354.98110976 106.24608483-12.37610041000005zM612.89489863-79.86912028999996l219.52550343 0c37.26442723 0 67.47788402 30.21345678 67.47788402 67.49185594L899.89828608 354.98110976 612.89489863 354.98110976 612.89489863-79.86912028999996zM55.23249721 429.3912064l338.01814016 0L393.25063737 616.83456 122.72435314 616.83456c-37.27839915 0-67.49185593-30.21229283-67.49185593-67.49185593L55.23249721 429.3912064zM612.89489863 616.83456L612.89489863 429.3912064l338.01814016 0L950.91303765 549.3427052100001c0 37.27956309-30.21578467 67.49185593-67.49185592 67.49185593L612.89489863 616.83456zM440.64326656 616.83456l124.84153685 0 0-696.70368029-124.84153685 0 0 696.70368029ZM299.60172885 652.21632227l406.92694244 0c34.884608 0 120.14011392 43.46779193 120.14011392 142.05214607 0 47.84670493-34.14062421 79.95796253-84.96559559 79.95796252-50.80867157 0-119.2063488-32.49081799-174.49755648-89.32937387-16.93117895 16.02535765-39.62794667 26.00918699-64.74761216 26.00918699-24.81462045 0-47.23428579-9.77774933-64.08978546-25.45381831C383.16434887 841.90792931 315.07288178 874.22526805 264.43885341 874.22526805c-50.82380743 0-84.97840355-32.1112576-84.97840356-79.95796252C179.46045099 695.68411421 264.73109163 652.21632227 299.60172885 652.21632227zM611.37665821 730.91801088c44.16636814 48.25653703 98.31773184 73.53687495 130.32653141 73.53687495 15.20918642 0 15.89728483-14.80051826 14.52458097-21.4567936-6.45019421-31.3218651-42.24178859-57.97490802-53.62742954-61.01138887l-87.28370745 0c-2.11668878 0-4.02962546 1.25510997-4.87606727 3.18434645C609.58015033 727.09446656 609.95971072 729.34272 611.37665821 730.91801088zM264.43885341 804.45488697c31.99482766 0 86.16016213-25.28033792 130.33002438-73.53687495 1.41345451-1.57529088 1.77787904-3.82354546 0.9314361-5.74812501-0.86041373-1.92923648-2.75937963-3.18434645-4.87490333-3.18434646l-87.28370745 0c-11.39961287 3.03648199-47.17490745 29.68952377-53.64023751 61.01138887C248.54273365 789.65436757 249.22966699 804.45488697 264.43885341 804.45488697z"  horiz-adv-x="1024" />

    
    <glyph glyph-name="study" unicode="&#59043;" d="M886.435924 830.953541L137.564076 830.953541c-40.050158 0-72.517617-32.467459-72.517617-72.517617l0-748.871849c0-40.050158 32.467459-72.517617 72.517617-72.517617l748.871849 0c40.050158 0 72.517617 32.467459 72.517617 72.517617L958.953541 758.435924C958.953541 798.486082 926.486082 830.953541 886.435924 830.953541zM699.727569 242.41535399999998c0 0-48.048319-97.345072-181.521217-97.345072-106.117876 0-181.540659 97.345072-181.540659 97.345072L336.665693 346.243071l169.740916-99.467409c11.601222-6.807033 25.417903-6.275937 36.604686 1.360997l156.715251 106.920148L699.726545 242.41535399999998zM814.295907 456.393797L553.735543 279.07836899999995c-11.127432-7.637957-24.883737-8.144494-36.446074-1.384533L293.689902 408.355711l188.4183 76.187193c10.534937-9.920954 30.042223-14.697747 49.629327-14.697747 28.876678 0 52.29811 10.775414 52.257178 32.785707 0 9.29776-4.169973 20.650319-11.166317 30.710442 1.285273-3.876284 1.977028-7.637957 1.977028-11.097756 0-18.919908-20.100804-28.17162-44.965098-28.17162-43.265386 0-44.589544 33.340339-43.917232 36.08587 0 0-8.755408-9.321296-10.533914-19.449981l-204.546629-82.693374-0.553609-153.711847c13.340843-5.630231 22.867824-20.558222 22.867824-38.047548 0-11.144828-3.89368-21.273513-10.159384-28.564569 6.068206-23.834848 14.96176-73.510224-3.37998-111.765503-5.317099-11.07422-14.428617-18.942421-25.081235-21.803585-10.653641-2.860141-21.800515-0.184195-30.674627 7.198959l-4.782933 4.015454c-9.368368 7.798617-15.21861 20.142759-15.950274 33.524534-0.731664 13.428847 3.716648 26.510794 12.135388 35.647895 10.515494 11.443633 19.389606 27.433816 21.998013 49.652863-8.222265 7.475252-13.478989 19.058055-13.478989 32.094976 0 17.558911 9.645684 32.625048 23.124673 38.139645l0.573051 160.980391c-12.590759 7.360641-20.713764 22.172999-21.168112 38.578644-0.434905 16.428158 6.859221 31.81766 19.014052 40.077787L505.885745 691.3223869999999c11.166317 7.614421 24.883737 8.121981 36.446074 1.360997l269.848914-157.63418c12.550851-7.337105 20.733207-22.150486 21.148669-38.578644C833.744865 480.043427 826.450738 464.653925 814.295907 456.393797z"  horiz-adv-x="1024" />

    
    <glyph glyph-name="discount" unicode="&#58949;" d="M631.46666667 264.53333333m-51.2 0a51.2 51.2 0 1 1 102.4 0 51.2 51.2 0 1 1-102.4 0ZM392.53333333 503.46666667m-51.2 0a51.2 51.2 0 1 1 102.4 0 51.2 51.2 0 1 1-102.4 0ZM974.50666667 516.90666667c9.38666667 4.05333333 15.36 13.22666667 15.36 23.46666666V699.73333333c0 51.84-42.02666667 93.86666667-93.86666667 93.86666667H128c-51.84 0-93.86666667-42.02666667-93.86666667-93.86666667v-159.36c0-10.24 5.97333333-19.41333333 15.36-23.46666666C102.4 493.86666667 136.53333333 441.6 136.53333333 384s-34.13333333-109.86666667-87.04-132.90666667c-9.38666667-4.05333333-15.36-13.22666667-15.36-23.46666666V68.26666666999995c0-51.84 42.02666667-93.86666667 93.86666667-93.86666667h768c51.84 0 93.86666667 42.02666667 93.86666667 93.86666667v159.36c0 10.24-5.97333333 19.41333333-15.36 23.46666666C921.6 274.13333333 887.46666667 326.4 887.46666667 384s34.13333333 109.86666667 87.04 132.90666667zM392.53333333 588.8c47.14666667 0 85.33333333-38.18666667 85.33333334-85.33333333s-38.18666667-85.33333333-85.33333334-85.33333334-85.33333333 38.18666667-85.33333333 85.33333334 38.18666667 85.33333333 85.33333333 85.33333333z m238.93333334-409.6c-47.14666667 0-85.33333333 38.18666667-85.33333334 85.33333333s38.18666667 85.33333333 85.33333334 85.33333334 85.33333333-38.18666667 85.33333333-85.33333334-38.18666667-85.33333333-85.33333333-85.33333333z m80.42666666 380.37333333l-375.46666666-375.46666666c-3.41333333-3.41333333-7.68-4.90666667-12.16-4.90666667s-8.74666667 1.70666667-12.16 4.90666667c-6.61333333 6.61333333-6.61333333 17.49333333 0 24.10666666l375.46666666 375.46666667c6.61333333 6.61333333 17.49333333 6.61333333 24.10666667 0 6.82666667-6.61333333 6.82666667-17.28 0.21333333-24.10666667z"  horiz-adv-x="1024" />

    
    <glyph glyph-name="diamond" unicode="&#58887;" d="M886.4478125 752.61328125l139.53515625-208.30078125c19.24804688-33.9609375 19.24804688-72.72070313-9.65039063-96.92578125L607.32476562 25.93359375c-9.65039063-14.5546875-28.8984375-19.40625-43.34765624-19.40625-14.39648438 0-33.64453125 9.703125-43.2421875 19.40625L111.62164062 447.38671875C87.52203125 471.64453125 82.7759375 515.203125 102.02398437 544.25976563l144.38671876 208.30078124C270.45757813 786.52148438 304.15484375 805.875 342.6509375 805.875h447.50390625c38.49609375-4.8515625 72.19335938-24.2578125 96.24023438-53.26171875z m-94.921875-200.6015625h13.86914063l4.64062499 45.5625H606.42828125v-50.625h13.86914063c37.01953125-5.0625 37.01953125-10.07226563 37.01953124-15.13476563-23.15039063-75.9375-55.52929688-146.75976563-92.49609374-212.51953124-18.50976563 45.5625-74.0390625 172.01953125-78.6796875 187.20703124-4.58789063 10.125-9.22851563 20.25-9.22851563 30.37500001 9.22851563 5.00976563 23.09765625 10.07226563 32.37890625 10.07226562l13.86914063 5.0625V597.57421875H310.43023437v-45.5625h18.45703126c50.94140625-5.0625 50.94140625-5.0625 74.03906249-60.64453125a36492.13476563 36492.13476563 0 0 0 115.64648438-283.34179688l4.640625-10.12499999h41.66015625l4.58789062 10.125c55.52929688 116.33203125 111.05859375 227.65429688 143.4375 283.28906249 32.37890625 50.625 36.96679688 55.63476563 78.57421875 60.69726563z"  horiz-adv-x="1152" />

    
    <glyph glyph-name="information-o" unicode="&#58922;" d="M601.942 253.99800000000005c-22.482 5.598-42.325-74.752-76.914-63.147-3.322 1.206-2.981 0.819-5.507 2.731 10.627 114.87 57.481 217.156 79.667 329.614h-5.484c-46.034-16.247-114.734-9.785-159.312-27.466v-13.722c66.401 1.32 49.106-39.231 35.703-87.905-16.589-60.257-46.922-135.487-52.178-189.554-5.257-53.999 28.171-74.342 60.416-74.16 45.67 0.228 84.196 45.033 104.38 71.407 5.143 6.713 41.734 46.603 19.228 52.201zM576.023 693.1800000000001c-31.039 0-56.206-25.145-56.206-56.206s25.145-56.206 56.206-56.206c31.039 0 56.206 25.145 56.206 56.206 0 31.061-25.168 56.206-56.206 56.206zM524.8 853.3340000000001c-250.948 0-455.111-204.163-455.111-455.111s204.163-455.111 455.111-455.111 455.111 204.163 455.111 455.111c0 250.948-204.163 455.111-455.111 455.111zM524.8-14.562999999999988c-227.601 0-412.763 185.185-412.763 412.786s185.162 412.786 412.763 412.786c227.601 0 412.786-185.185 412.786-412.786 0-227.601-185.185-412.786-412.786-412.786z"  horiz-adv-x="1024" />

    
    <glyph glyph-name="evaluate" unicode="&#58936;" d="M921.66492 496.902564c-19.6128 0-34.134472-15.890243-34.134472-35.531402l0-434.697036c0-46.715951-36.218759-86.441558-82.96146-86.441558L169.373953-59.76743299999998c-46.742701 0-101.105009 39.725608-101.105009 86.441558L68.268945 662.795338c0 46.784149 54.362308 96.637229 101.105009 96.637229l363.075979 0c19.646969 0 35.501218 14.492174 35.501218 34.133333s-15.854249 34.133333-35.501218 34.133333L169.373953 827.699234C76.025226 827.699234 0 756.363636 0 662.795338l0-636.087113c0-93.5001 76.025226-154.708225 169.373953-154.708225l635.195035 0c93.417064 0 151.230405 61.208125 151.230405 154.708225L955.799393 461.405261C955.799393 481.012321 941.27772 496.902564 921.66492 496.902564zM993.248223 814.230037l-51.970503 52.06953c-39.567286 39.62331-109.10047 39.62331-148.701925 0L694.306784 750.805461l-455.365478-433.060273 0-12.207526-0.410024-2.114153-65.87714-223.281785 48.382796-43.16963 211.298876 74.506827 2.665154-0.579687 10.387267 0L877.826554 566.97649l115.421669 94.216184C1034.250592 702.1799530000001 1034.250592 773.174559 993.248223 814.230037zM265.695352 129.21052299999997l30.751777 97.9671 61.503554-61.549118L265.695352 129.21052299999997zM420.479295 202.251082l-90.478561 90.533467L729.84217 690.31342l87.540058-87.669131L420.479295 202.251082zM943.703694 715.001265l-69.772365-69.801132-101.583369 101.683916 69.738196 69.767033c6.594548 6.581152 15.375888 10.195671 24.840602 10.195671 9.362208 0 18.177717-3.614519 24.772265-10.195671l51.970503-52.035431C957.37115 750.941858 957.37115 728.675058 943.703694 715.001265z"  horiz-adv-x="1024" />

    
    <glyph glyph-name="cancel" unicode="&#58917;" d="M725.86772053 421.3651392L244.93018027 421.3651392l0-43.1840672 480.93754026 0L725.86772053 421.3651392zM244.93018027 239.05618132999996l480.93754026 0 0 43.1840672L244.93018027 282.24024853000003 244.93018027 239.05618132999996zM127.8017344 24.01234026999998L127.8017344 749.19205867c0 69.53024533 0 69.53024533 68.6450176 69.53024533l440.541232 0 0-95.73779947c0-41.28808533 0-89.76496533 132.406544-89.76496533l96.55207787 0 0-311.3950784 43.18843306 0L909.13503893 676.40142293l-1.42989973 0L680.10437653 861.49704853l0 0.40932267L153.26268373 861.9063712c-37.68168213 0-68.6450176-31.0975936-68.57843413-69.53133653L84.68425067-19.170635729999958c0-38.433744 30.82907733-69.53133653 68.85240746-69.53133654l255.09850134 0 0 43.18625067L196.65523307-45.515721600000006C127.8017344-45.515721600000006 127.8017344-45.515721600000006 127.8017344 24.01234026999998zM680.10437653 805.07385493l158.88807147-128.67133973L726.07511147 676.4025152c-25.39436693 0-45.97073493 20.91474133-45.97073494 46.58198933L680.10437653 805.07385493zM405.31036907 653.250144l0-43.25501653 160.31251306 0 0 43.25501653L405.31036907 653.250144zM725.86772053 537.3452992L244.93018027 537.3452992l0-43.19061653 480.93754026 0L725.86772053 537.3452992zM941.9703424-53.49150612999995L822.55951467 66.27297599999997l118.79848213 118.43282027c8.29560213 8.27049707 8.3621856 22.03355627-0.06767467 30.44049386-8.502992 8.47570453-22.1689056 8.40802987-30.60422293 0L792.05025387 96.87174187000005l-118.00494187 118.3553216c-8.26940587 8.29341867-22.03355627 8.36000213-30.43940267-0.06985814-8.47570453-8.5008096-8.40912107-22.16453973 0-30.5976736l117.84667094-118.19159253L642.00791467-52.7121568l0.05675946-0.05675947c-3.78978027-3.82580053-6.13219627-9.0782272-6.13219626-14.88078186 0-11.7000736 9.51374613-21.18544 21.2509312-21.18544 5.8178368 0 11.08663573 2.33695893 14.92444373 6.115824l0.49991893-0.49991894 119.35516054 118.98840747L911.46435627-84.08372267000004l0.05675946 0.05675947c3.82580053-3.78978027 9.0782272-6.13328853 14.87969067-6.13328853 11.7000736 0 21.18544 9.51374613 21.18544 21.24765653 0 5.8178368-2.33695893 11.08554453-6.11473173 14.92444373L941.9703424-53.49150612999995z"  horiz-adv-x="1024" />

    
    <glyph glyph-name="noverify" unicode="&#58926;" d="M68.90666667 354.13333333h891.73333333c15.68 0 28.58666667 12.69333333 28.58666667 28.58666667 0 15.68-12.69333333 28.58666667-28.58666667 28.58666667h-891.73333333c-15.68 0-28.58666667-12.69333333-28.58666667-28.58666667 0.10666667-15.78666667 12.8-28.58666667 28.58666667-28.58666667z m0.74666666 181.54666667c15.68 0 28.58666667 12.69333333 28.58666667 28.58666667V684.26666667c0 62.82666667 51.09333333 113.92 113.92 113.92h112.85333333c15.68 0 28.58666667 12.69333333 28.58666667 28.58666666s-12.69333333 28.58666667-28.58666667 28.58666667H212.05333333c-94.18666667 0-170.88-76.69333333-170.88-170.88V564.26666667c0-15.89333333 12.69333333-28.58666667 28.48-28.58666667z m888.10666667-320.53333333c-15.68 0-28.58666667-12.69333333-28.58666667-28.58666667v-105.70666667c0-62.82666667-51.09333333-113.92-113.92-113.92H702.50666667v-0.10666666c-10.56 0-20.90666667-5.97333333-25.81333334-16.21333334-6.82666667-14.18666667-0.74666667-31.14666667 13.44-37.97333333 3.94666667-1.92 8.10666667-2.66666667 12.16-2.66666667v-0.10666666h112.85333334c94.18666667 0 170.88 76.69333333 170.88 170.88v105.70666666c0.21333333 16-12.48 28.69333333-28.26666667 28.69333334zM702.50666667 798.18666667h112.85333333c62.82666667 0 113.92-51.09333333 113.92-113.92v-120.10666667c0-15.68 12.69333333-28.58666667 28.58666667-28.58666667s28.58666667 12.69333333 28.58666666 28.58666667V684.26666667c0 94.18666667-76.69333333 170.88-170.88 170.88h-113.06666666c-15.68 0-28.58666667-12.69333333-28.58666667-28.58666667s12.8-28.37333333 28.58666667-28.37333333zM337.17333333-35.73333333000005c-3.94666667 1.92-8.10666667 2.66666667-12.16 2.66666666v0.10666667H212.05333333C149.33333333-32.960000000000036 98.13333333 18.133333330000028 98.13333333 80.96000000000004V186.66666667000004c0 15.68-12.69333333 28.58666667-28.58666666 28.58666666s-28.48-12.8-28.48-28.58666666v-105.70666667c0-94.18666667 76.69333333-170.88 170.88-170.88h112.85333333v0.10666667c10.56 0 20.90666667 5.97333333 25.81333333 16.21333333 6.82666667 14.18666667 0.74666667 31.14666667-13.44 37.86666667z"  horiz-adv-x="1024" />

    
    <glyph glyph-name="payed" unicode="&#59161;" d="M291.02231703 19.975838029999977H88.2976237c-19.02971259 0-34.56417185 17.47626667-34.56417185 38.83614814V709.18801383c0 21.35988148 15.53445925 38.83614815 34.56417185 38.83614814h792.25742222c19.02971259 0 34.56417185-17.47626667 34.56417186-38.83614814v-84.01553383c0-21.48933531 17.34681283-38.83614815 38.83614814-38.83614815s38.83614815 17.34681283 38.83614816 38.83614815v84.01553383c0 64.20909827-50.35753876 116.50844445-112.23646816 116.50844444h-792.25742222c-61.87892939 0-112.23646815-52.29934617-112.23646815-116.50844444v-650.37602766c0-64.20909827 50.35753876-116.50844445 112.23646815-116.50844444h202.85414716c21.48933531 0 38.83614815 17.34681283 38.83614816 38.83614814s-17.47626667 38.83614815-38.96560199 38.83614816zM1009.1026963 249.88583505999998c-15.14609778 15.14609778-39.74232494 15.14609778-54.88842272 0L637.82912-66.36986468999999 481.06053531 90.39872000000003c-15.14609778 15.14609778-39.74232494 15.14609778-54.88842272 0s-15.14609778-39.74232494 0-54.88842272L610.38490864-148.8319525899999c7.24941431-7.24941431 17.21735902-11.3919368 27.44421136-11.3919368s20.19479703 4.14252247 27.44421136 11.3919368L1009.1026963 194.99741235c15.14609778 15.14609778 15.14609778 39.74232494 0 54.88842271zM512 505.16878222c17.21735902 0 31.84564148-11.13302914 36.89434075-26.66748839h7.11996049l132.69017284 132.69017284c15.14609778 15.14609778 15.14609778 39.74232494 0 54.88842272s-39.74232494 15.14609778-54.88842272 0l-121.68659753-121.68659754-121.68659753 121.68659754c-15.14609778 15.14609778-39.74232494 15.14609778-54.88842272 0s-15.14609778-39.74232494 0-54.88842272L467.98569876 478.50129383h7.11996049c5.17815309 15.53445925 19.67698173 26.66748839 36.89434075 26.66748839zM473.16385185 157.45580246999998c0-21.48933531 17.34681283-38.83614815 38.83614815-38.83614816s38.83614815 17.34681283 38.83614815 38.83614816v111.33029136h-77.6722963v-111.33029136z m0 243.37319506h77.6722963v-54.3706074h-77.6722963z m38.83614815 104.33978469c-17.21735902 0-31.84564148-11.13302914-36.89434075-26.66748839h73.7886815c-5.04869925 15.53445925-19.67698173 26.66748839-36.89434075 26.66748839z m-38.31833283-32.36345679L467.98569876 478.50129383H305.78005333c-21.48933531 0-38.83614815-17.34681283-38.83614815-38.83614814s17.34681283-38.83614815 38.83614815-38.83614816H473.16385185v65.50363655c0 2.20071506 0.25890765 4.40143013 0.51781532 6.47269135z m77.15448098-6.47269135V400.82899753h167.38379852c21.48933531 0 38.83614815 17.34681283 38.83614815 38.83614816s-17.34681283 38.83614815-38.83614815 38.83614814H556.01430124l-5.69596841-5.6959684c0.38836148-2.07126124 0.51781531-4.2719763 0.51781532-6.47269135z m-75.7304889 12.16865975H467.98569876l5.69596841-5.6959684c0.38836148 1.94180741 0.77672297 3.88361482 1.42399208 5.6959684z m75.21267358-5.6959684l5.69596841 5.6959684h-7.11996049c0.64726914-1.81235358 1.03563061-3.75416098 1.42399208-5.6959684z m0.51781532-6.47269135c0 2.20071506-0.12945383 4.2719763-0.51781532 6.47269135l-10.87412147-10.87412148c-7.63777581-7.63777581-17.47626667-11.3919368-27.44421136-11.39193678s-19.93588939 3.75416098-27.44421136 11.39193678l-10.87412147 10.87412148c-0.38836148-2.07126124-0.51781531-4.2719763-0.51781532-6.47269135V400.82899753h77.6722963v65.50363655z m-75.7304889 12.16865975c-0.64726914-1.81235358-1.03563061-3.75416098-1.42399208-5.6959684l10.87412147-10.87412148c7.63777581-7.63777581 17.47626667-11.3919368 27.44421136-11.39193678s19.93588939 3.75416098 27.44421136 11.39193678l10.87412147 10.87412148c-0.38836148 1.94180741-0.77672297 3.88361482-1.42399208 5.6959684h-73.7886815z m243.11428742-209.7152c21.48933531 0 38.83614815 17.34681283 38.83614815 38.83614814s-17.34681283 38.83614815-38.83614815 38.83614816H550.83614815v-77.6722963h167.38379852z m-412.43989334 77.6722963c-21.48933531 0-38.83614815-17.34681283-38.83614815-38.83614816s17.34681283-38.83614815 38.83614815-38.83614814H473.16385185v77.6722963H305.78005333z m167.38379852 0h77.6722963v-77.6722963h-77.6722963z"  horiz-adv-x="1024" />

    
    <glyph glyph-name="nopay" unicode="&#58898;" d="M380.96956 696.279594h501.032695V781.709132c0 6.926719-1.154453 13.853439-3.46336 18.471251-3.46336 5.772266-8.081172 11.544532-12.698985 15.007892-5.772266 4.617813-12.698985 8.081172-18.471252 9.235626s-12.698985 0-19.625704-1.154453L380.96956 696.279594z m572.608794 0h8.081172c34.633596 0 64.64938-13.853439 86.583991-35.788049 23.089064-21.934611 35.78805-53.104848 35.78805-86.583991v-579.535513c0-33.479143-12.698985-63.494927-35.78805-86.583991-21.934611-21.934611-51.950395-35.78805-86.583991-35.78805H122.372041c-33.479143 0-64.64938 13.853439-86.583991 35.78805-21.934611 23.089064-35.78805 53.104848-35.78805 86.583991V573.907554c0 33.479143 13.853439 64.64938 35.78805 86.583991 20.780158 20.780158 49.641488 34.633596 81.966178 35.788049L808.117249 891.382187c18.471251 4.617813 35.78805 5.772266 51.950395 2.308907 17.316798-2.308906 33.479143-10.390079 48.487035-20.780158 15.007892-11.544532 26.552424-25.397971 33.479143-40.405863 8.081172-16.162345 11.544532-33.479143 11.544532-50.795941v-85.429538z m58.877114-354.417136H868.148816c-16.162345 0-30.015784-6.926719-40.405862-17.316798s-17.316798-24.243517-17.316798-40.405863c0-15.007892 6.926719-30.015784 17.316798-40.405862s24.243517-16.162345 40.405862-16.162345h144.306652v114.290868z m-144.306652 71.576099h144.306652V573.907554c0 13.853439-4.617813 26.552424-13.853439 35.788049h-1.154453c-8.081172 9.235626-20.780158 15.007892-35.78805 15.007892H122.372041c-13.853439 0-26.552424-5.772266-35.78805-15.007892s-15.007892-21.934611-15.007892-35.788049v-579.535513c0-13.853439 5.772266-26.552424 15.007892-35.78805s21.934611-15.007892 35.78805-15.007892h839.287485c15.007892 0 27.706877 5.772266 35.78805 15.007892h1.154453c9.235626 9.235626 13.853439 21.934611 13.853439 35.78805V155.99549000000002H868.148816c-35.78805 0-66.958286 13.853439-91.201804 38.096956-23.089064 23.089064-38.096956 55.413754-38.096956 90.047351 0 35.78805 15.007892 68.11274 38.096956 91.201804 24.243517 23.089064 55.413754 38.096956 91.201804 38.096956z"  horiz-adv-x="1084" />

    
    <glyph glyph-name="member" unicode="&#58884;" d="M247.33546667 560.1151999900001c0-147.03573333 117.6288-264.66453333 264.66453333-264.66453332s264.66453333 117.6288 264.66453333 264.66453332S659.03573333 824.77866667 512 824.77866667 247.33546667 707.1509333399999 247.33546667 560.1151999900001zM768.2624 299.6512c-21.00479999 16.80426667-50.41173333 16.80426667-71.41760001-4.20053333C650.63466667 249.23946666999996 583.4176 219.83146666000005 512 219.83146666000005s-138.63466667 29.408-184.84480001 75.61920001c-21.00586667 21.00479999-50.4128 21.00479999-71.41759999 4.20053333-79.81866667-67.216-138.63466667-155.43786667-159.63946668-277.2672-8.40213333-50.4128 25.2064-88.22186666 75.61920001-88.22186666h680.56533334c50.4128 0 84.02133333 42.01066667 75.61919999 88.22186666-16.80426667 117.6288-75.6192 205.8496-159.63946666 277.2672z"  horiz-adv-x="1024" />

    
    <glyph glyph-name="article" unicode="&#58896;" d="M762.71428584 538.28571416c0-32.14285752 25.71428584-57.85714248 57.85714248-57.85714248s57.85714248 25.71428584 57.85714336 57.85714248-25.71428584 57.85714248-57.85714336 57.85714336c-32.14285752-6.42857168-57.85714248-32.14285752-57.85714248-57.85714336M698.42857168 461.14285752L602 390.42857168h-6.42857168l-109.28571416 192.85714248c0 6.42857168-6.42857168 6.42857168-6.42857168 0l-12.85714248-19.28571416-199.28571416-366.42857167c0-6.42857168-6.42857168-19.28571416 0-19.28571417h623.57142832c6.42857168 0 0 12.85714248 0 19.28571416l-173.57142832 263.5714292h-19.28571416zM929.85714248 769.71428584c51.42857168 0 96.42857168-45 96.42857168-96.42857168v-585c0-51.42857168-45-96.42857168-96.42857168-96.42857168h-707.14285664C171.28571416-1.7142858400000023 126.28571416 43.28571416 126.28571416 94.71428584v578.57142832C126.28571416 724.71428584 171.28571416 769.71428584 222.71428584 769.71428584h707.14285664m0 64.28571416h-707.14285664C132.71428584 834 62 763.28571416 62 673.28571416v-585C62 4.714285840000002 132.71428584-66 222.71428584-66h713.57142832c90 0 160.71428584 70.71428584 160.71428584 160.71428584v578.57142832C1090.57142832 763.28571416 1019.85714248 834 929.85714248 834z"  horiz-adv-x="1177" />

    
    <glyph glyph-name="video" unicode="&#58889;" d="M463.2576 219.8528h3.328c1.6896 0 3.328 0 3.328 1.6384l177.92 156.3136c1.6384 1.6384 1.6384 3.328 1.6384 4.9664 0 1.6896-1.6384 3.328-1.6384 4.9664L469.9136 540.7232c-1.6384 1.6896-4.9664 1.6896-6.656 0-1.6384-1.6384-3.328-3.328-3.328-6.656v-309.248c0-1.6384 1.6384-4.9664 3.328-4.9664z m422.2976 605.2352H137.3696C69.2224 825.088 12.6464 768.5632 12.6464 698.7264v-630.1696a125.6448 125.6448 0 0 1 124.7232-124.7232h748.2368a124.5696 124.5696 0 0 1 124.7232 124.7232V698.7264c-0.0512 69.8368-56.576 126.3616-124.7744 126.3616z m-93.0816-48.2304h84.7872v-84.7872h-84.7872V776.8576z m-166.2976 0h84.7872v-84.7872H626.176V776.8576z m-166.2464 0h84.7872v-84.7872H459.9296V776.8576z m-166.2976 0h84.7872v-84.7872H293.632V776.8576z m-166.2464 0h84.7872v-84.7872H127.3856V776.8576z m84.7872-783.1552H127.3856v84.7872h84.7872v-84.7872z m166.2976 0H293.632v84.7872h84.7872v-84.7872z m166.2464 0H459.9296v84.7872h84.7872v-84.7872z m166.2976 0H626.176v84.7872h84.7872v-84.7872z m166.2464 0h-84.7872v84.7872h84.7872v-84.7872z m81.4592 133.0176H60.8768V642.1504h899.5328l-1.6896-515.4304z m0 0"  horiz-adv-x="1024" />

    
    <glyph glyph-name="urllink" unicode="&#58890;" d="M921.49333333 556.58666667c5.54666667-5.65333333 8.64-13.12 8.64-21.01333334v-535.36c0-49.17333333-40-89.17333333-89.17333333-89.17333333H186.66666667c-49.17333333 0-89.17333333 40-89.17333334 89.17333333V773.44c0 49.17333333 40 89.17333333 89.17333334 89.17333333h416.32c7.89333333 0 15.46666667-3.09333333 21.01333333-8.64l297.49333333-297.38666666zM627.62666667 761.17333333v-166.08c0-16.42666667 13.22666667-29.76 29.44-29.76h164.58666666L627.62666667 761.17333333z m242.45333333-760.96v505.6H661.97333333c-49.17333333 0-89.17333333 40-89.17333333 89.17333334V803.2H186.13333333c-16.42666667 0-29.76-13.33333333-29.76-29.76v-773.22666667c0-16.42666667 13.33333333-29.76 29.76-29.76h654.29333334c16.32 0 29.65333333 13.44 29.65333333 29.76z m-281.92 272v-2.56c0-60.58666667-51.84-105.81333333-114.13333333-105.81333333H329.70666667c-62.29333333 0-113.28 49.6-113.28 110.18666667v2.66666666c0 60.58666667 50.98666667 110.18666667 113.28 110.18666667l64.21333333-2.02666667c2.13333333 0.21333333 4.37333333 0.10666667 6.50666667-0.21333333h0.64v-0.10666667c4.8-0.85333333 9.38666667-3.09333333 13.01333333-6.72 9.81333333-9.49333333 9.81333333-24.96 0-34.45333333-5.65333333-5.44-13.22666667-7.78666667-20.58666667-6.93333333h-63.78666666c-33.81333333 0-61.33333333-26.77333333-61.33333334-59.62666667v-2.66666667c0-32.85333333 27.52-59.62666667 61.33333334-59.62666666h144.42666666c33.81333333 0 68.05333333 23.36 67.94666667 56.32v2.66666666c0 2.77333333-0.21333333 5.44-0.53333333 8.21333334-0.64 2.34666667-0.74666667 4.90666667-0.53333334 7.25333333 0.42666667 5.12 2.66666667 10.02666667 6.72 13.86666667 9.06666667 8.74666667 23.68 8.74666667 32.64 0 4.37333333-4.26666667 6.61333333-9.81333333 6.72-15.46666667 0.64-5.12 1.06666667-10.13333333 1.06666667-15.14666667z m223.04 1.81333334c0-60.58666667-51.62666667-110.18666667-114.88-110.18666667l-65.28 2.56c-2.56-0.32-5.22666667-0.21333333-7.78666667 0.32h-0.96v0.10666667c-4.37333333 0.96-8.53333333 3.09333333-11.94666666 6.4-9.81333333 9.49333333-9.81333333 24.74666667 0 34.24 5.86666667 5.65333333 13.97333333 7.89333333 21.54666666 6.82666666h64.42666667c34.24 0 62.18666667 26.77333333 62.18666667 59.73333334v2.56c0 32.96-27.94666667 59.73333333-62.18666667 59.62666666H549.97333333c-34.34666667 0-65.70666667-17.70666667-65.70666666-50.56v-2.56c0-5.12 1.06666667-11.52-1.49333334-18.02666666-1.06666667-2.88-2.77333333-5.65333333-5.22666666-8-8.64-8.32-22.61333333-8.32-31.25333334 0-2.88 2.66666667-4.69333333 5.97333333-5.65333333 9.49333333v0.10666667c-0.64 2.13333333-0.85333333 4.48-0.74666667 6.61333333-0.21333333 2.66666667-0.32 5.44-0.32 8.21333333v2.56c0 60.69333333 47.36 102.72 110.50666667 102.72h146.34666667c63.14666667 0 114.88-49.6 114.88-110.18666666v-2.56z"  horiz-adv-x="1024" />

    
    <glyph glyph-name="audio" unicode="&#58927;" d="M323.545 272.32000000000005c24.6 13.24 50.907 18.006 74.203 15.117V563.673c0 16.006 10.898 29.903 26.429 33.78l278.187 68.912a34.743 34.743 0 0 0 43.142-33.719v-27.136l-183.138-45.433c-0.585-0.11-1.121-0.342-1.719-0.476l-93.342-23.113v-320.305c0-0.768-0.061-1.475-0.122-2.194-0.805-34.121-24.369-70.34-63.208-91.21-52.602-28.318-113.274-17.773-135.521 23.467-22.248 41.338 2.475 97.768 55.089 126.074z m422.01 261.535v-248.71c0-34.597-23.772-71.668-63.269-92.904-52.602-28.306-113.335-17.761-135.534 23.479-22.174 41.265 2.487 97.768 55.101 126.05 24.54 13.19 50.847 17.956 74.155 15.14V516.605l69.547 17.25zM52.35 825h920.637a38.351 38.351 0 0 0 38.351-38.363v-805.56a38.327 38.327 0 0 0-38.35-38.35H52.35A38.339 38.339 0 0 0 14-18.923999999999978v805.56A38.351 38.351 0 0 0 52.351 825z m12.313-829.208h896.012v776.13H64.664v-776.13z"  horiz-adv-x="1024" />

    
    <glyph glyph-name="back-o" unicode="&#58892;" d="M512.89775 832.23375C265.254875 832.23375 63.7955 630.7608749999999 63.7955 383.13262499999996 63.7955 135.47287500000004 265.254875-66 512.89775-66 760.5395-66 962 135.47287500000004 962 383.13262499999996 962 630.7608749999999 760.5395 832.23375 512.89775 832.23375zM512.89775-18.642000000000053c-221.536125 0-401.754375 180.225-401.754375 401.774625 0 221.520375 180.217125 401.74875 401.754375 401.74875 221.535 0 401.75325-180.2295 401.75325-401.74875C914.651 161.58299999999997 734.43275-18.642000000000053 512.89775-18.642000000000053zM574.697375 500.271l-92.98125 0 0 75.483-204.013125-101.939625 204.013125-101.944125L481.716125 447.18l100.68075 0c79.69725 0 119.53575-33.3585 119.53575-100.07775 0-69.0255-41.16375-103.530375-123.5115-103.530375L343.6055 243.57187499999998l0-53.089875 237.205125 0c112.269375 0 168.400125 50.524875 168.400125 151.57575C749.21075 447.529875 691.046 500.271 574.697375 500.271z"  horiz-adv-x="1024" />

    
    <glyph glyph-name="cart" unicode="&#58899;" d="M975.152 660.941c-16.726 24.626-44.336 39.328-73.856 39.328l-699.771 0.067-4.977 27.662-6.844 48.766c-2.203 15.681-15.735 27.505-31.476 27.505H65.441c-17.529 0-31.79-14.346-31.79-31.98 0-17.632 14.26-31.978 31.79-31.978h65.169l3.073-21.884c0.057-0.407 0.123-0.81 0.195-1.211l9.082-50.48a32.033 32.033 0 0 1 1.445-8.025l13.45-74.763c0.085-0.47 0.18-0.944 0.303-1.497l68.371-298.918c0.146-0.639 0.31-1.267 0.499-1.916 14.931-50.595 42.657-84.266 78.245-96.449-47.492-12.951-82.541-56.805-82.541-108.774 0-62.123 50.079-112.666 111.635-112.666 61.554 0 111.633 50.541 111.633 112.666 0 46.495-28.053 86.498-67.971 103.685H694.35c-39.919-17.186-67.972-57.19-67.972-103.685 0-62.123 50.078-112.666 111.633-112.666 61.556 0 111.635 50.541 111.635 112.666 0 51.938-35.007 95.773-82.46 108.752 33.418 11.29 61.623 41.587 85.611 91.781 0.157 0.336 0.313 0.673 0.431 0.953l130.27 298.882c0.205 0.47 0.397 0.944 0.576 1.413 10.805 28.348 7.555 58.515-8.918 82.764z m-285.2-584.546c0 26.855 21.556 48.705 48.053 48.705 26.498 0 48.055-21.847 48.055-48.705 0-13.01-5.023-25.251-14.145-34.47-9.086-9.18-21.131-14.236-33.91-14.236-26.497 0.001-48.053 21.851-48.053 48.706zM334.365 125.10000000000002c26.498 0 48.055-21.847 48.055-48.705s-21.557-48.705-48.055-48.705-48.055 21.85-48.055 48.705 21.557 48.705 48.055 48.705z m590.562 476.57L795.23 304.09000000000003c-19.395-40.41-38.823-60.052-59.396-60.052H336.358c-11.807 0-33.739 7.132-48.106 54.873L220.285 596.0699999999999l-7.25 40.295 43.614-0.054h644.646c8.379 0 16.566-4.389 21.365-11.454 4.545-6.691 5.327-14.705 2.266-23.187z m-172.699-17.399c-5.999 0-11.719-1.902-16.546-5.498L483.159 390.565l-75.837 89.292a27.718 27.718 0 0 1-21.155 9.807 27.734 27.734 0 0 1-18.155-6.787c-11.563-10.03-12.9-27.69-2.983-39.369l92.689-109.138a27.718 27.718 0 0 1 21.158-9.807 27.482 27.482 0 0 1 16.548 5.498l273.372 203.746c12.272 9.146 14.902 26.661 5.865 39.043-5.221 7.151-13.609 11.421-22.434 11.421z"  horiz-adv-x="1024" />

    
    <glyph glyph-name="close" unicode="&#58883;" d="M574.55 373.65L904.4 703.5c16.65 16.65 16.65 44.1 0 60.75l-1.8 1.8c-16.65 16.65-44.1 16.65-60.75 0L512 435.75 182.15 766.05c-16.65 16.65-44.1 16.65-60.75 0l-1.8-1.8c-17.1-16.65-17.1-44.1 0-60.75l329.85-329.85L119.6 43.799999999999955c-16.65-16.65-16.65-44.1 0-60.75l1.8-1.8c16.65-16.65 44.1-16.65 60.75 0L512 311.1 841.85-18.75c16.65-16.65 44.1-16.65 60.75 0l1.8 1.8c16.65 16.65 16.65 44.1 0 60.75L574.55 373.65z"  horiz-adv-x="1024" />

    
    <glyph glyph-name="coupon" unicode="&#59169;" d="M405.97905782-61.28795771c-14.13612598 0-28.27225107 14.13612598-28.27225196 28.27225108s14.13612598 28.27225107 28.27225194 28.27225106h720.94240812c9.42408369 0 14.13612598 4.71204229 18.84816738 9.4240837 4.71204229 4.71204229 9.42408369 14.13612598 9.4240837 18.84816737v193.19371788c-32.98429337 4.71204229-61.25654443 23.56020967-84.81675323 42.40837705-28.27225107 28.27225107-47.12041846 70.68062812-47.12041934 113.08900518 0 42.40837705 18.84816738 84.81675408 47.12041934 113.08900518 23.56020967 23.56020967 51.83246074 37.69633477 84.81675323 42.40837704V739.75916221c0 9.42408369-4.71204229 14.13612598-9.4240837 18.84816738-4.71204229 4.71204229-14.13612598 9.42408369-18.84816738 9.42408369H170.37696377c-9.42408369 0-14.13612598-4.71204229-18.84816827-9.42408369-4.71204229-4.71204229-9.42408369-14.13612598-9.42408368-18.84816738v-212.04188438c32.98429337-4.71204229 61.25654443-23.56020967 84.8167541-42.40837704 28.27225107-28.27225107 47.12041846-70.68062812 47.12041934-113.0890052 0-42.40837705-18.84816738-84.81675408-47.12041934-113.08900516-23.56020967-23.56020967-51.83246074-37.69633477-84.8167541-42.40837705v-193.19371787c0-9.42408369 4.71204229-14.13612598 9.42408368-18.84816738 4.71204229-4.71204229 14.13612598-9.42408369 18.84816827-9.4240837H250.48167558c14.13612598 0 28.27225107-14.13612598 28.27225108-28.27225108s-14.13612598-28.27225107-28.27225107-28.27225106H170.37696377c-23.56020967 0-47.12041846 9.42408369-61.25654531 23.56020878-14.13612598 14.13612598-23.56020967 37.69633477-23.56020879 61.25654444v216.75392666c0 14.13612598 14.13612598 28.27225107 28.27225107 28.27225194 28.27225107 0 51.83246074 9.42408369 70.68062812 28.27225108 18.84816738 18.84816738 28.27225107 42.40837705 28.27225108 70.68062813S203.36125623 419.34031406 184.51308886 438.18848144c-18.84816738 18.84816738-42.40837705 28.27225107-70.6806281 28.27225195-14.13612598 0-28.27225107 14.13612598-28.27225109 28.27225109V735.0471208c0 23.56020967 9.42408369 42.40837705 23.56020879 61.25654443 14.13612598 14.13612598 37.69633477 23.56020967 61.25654531 23.5602088h956.54450215c23.56020967 0 47.12041846-9.42408369 61.25654444-28.27225108 14.13612598-14.13612598 28.27225107-37.69633477 28.27225107-61.25654443v-240.31413632c0-14.13612598-14.13612598-28.27225107-28.27225107-28.27225107-28.27225107 0-51.83246074-9.42408369-70.68062813-28.27225109-18.84816738-18.84816738-28.27225107-42.40837705-28.27225108-70.68062813s9.42408369-51.83246074 28.27225108-70.680629c18.84816738-18.84816738 42.40837705-28.27225107 70.68062813-28.27225107 14.13612598 0 28.27225107-14.13612598 28.27225107-28.27225108v-216.75392665c0-23.56020967-9.42408369-47.12041846-28.27225107-61.25654444-14.13612598-14.13612598-37.69633477-23.56020967-61.25654444-23.56020967H405.97905782zM457.81151856 588.97382227c-14.13612598 9.42408369-14.13612598 28.27225107-4.71204229 42.40837705 9.42408369 14.13612598 28.27225107 14.13612598 42.40837706 4.71204139L651.00523555 504.15706816l155.49738223 131.93717255c14.13612598 9.42408369 32.98429337 9.42408369 42.40837704-4.71204139 9.42408369-14.13612598 9.42408369-28.27225107-4.71204228-42.40837705L688.70157031 457.03664883h136.64921485c14.13612598 0 28.27225107-14.13612598 28.27225107-28.27225107s-14.13612598-28.27225107-28.27225107-28.27225108h-146.07329854v-80.10471181h146.07329854c14.13612598 0 28.27225107-14.13612598 28.27225107-28.27225196s-14.13612598-28.27225107-28.27225107-28.27225108h-146.07329854V174.31413633c0-14.13612598-14.13612598-28.27225107-28.27225107-28.27225107s-28.27225107 14.13612598-28.27225107 28.27225107v89.5287955H476.65968594c-14.13612598 0-28.27225107 14.13612598-28.27225107 28.27225108s14.13612598 28.27225107 28.27225107 28.27225196h146.07329853V400.49214668H476.65968594c-14.13612598 0-28.27225107 14.13612598-28.27225107 28.27225108s14.13612598 28.27225107 28.27225107 28.27225107h136.64921483L457.81151856 588.97382227z"  horiz-adv-x="1340" />

    
    <glyph glyph-name="pull-right" unicode="&#59157;" d="M624.865 383.75300000000004l-292.155 292.159c-12.28 12.27-12.28 32.186 0 44.457 12.27 12.28 32.186 12.28 44.457 0l314.388-314.388c12.28-12.27 12.28-32.186 0-44.457l-314.388-314.387c-6.136-6.14-14.183-9.211-22.228-9.211s-16.092 3.071-22.228 9.211c-12.28 12.27-12.28 32.186 0 44.457l292.155 292.16z"  horiz-adv-x="1024" />

    
    <glyph glyph-name="clock" unicode="&#59123;" d="M367.1 810.15c-129.375-22.5-236.25-112.5-286.875-230.625v-16.875c0-5.625 5.625-11.25 11.25-11.25 11.25-5.625 28.125 0 33.75 11.25 45 101.25 135 180 247.5 196.875 5.625 0 11.25 5.625 16.875 11.25 5.625 5.625 5.625 11.25 5.625 16.875 0 16.875-11.25 22.5-28.125 22.5z m292.5-50.625c112.5-16.875 208.125-95.625 247.5-196.875 5.625-11.25 22.5-16.875 33.75-11.25 5.625 0 11.25 5.625 11.25 11.25v16.875c-50.625 118.125-157.5 202.5-286.875 225-11.25 0-28.125-5.625-28.125-16.875 0-5.625 0-11.25 5.625-16.875 0-5.625 5.625-11.25 16.875-11.25z m-146.25-776.25c208.125 0 382.5 168.75 382.5 371.25 0 202.5-168.75 371.25-382.5 371.25-208.125 0-376.875-168.75-376.875-371.25 0-208.125 168.75-371.25 376.875-371.25z m0 45c-185.625 0-331.875 146.25-331.875 320.625 0 180 146.25 320.625 331.875 320.625 185.625 0 331.875-146.25 331.875-320.625s-146.25-320.625-331.875-320.625z m230.625-22.5l61.875-61.875c11.25-11.25 28.125-11.25 33.75 0 11.25 11.25 11.25 22.5 0 33.75l-61.875 61.875c-11.25 11.25-28.125 11.25-33.75 0-5.625-5.625-5.625-11.25-5.625-16.875 0-11.25 5.625-16.875 5.625-16.875z m-253.125 590.625v-241.875c0-11.25 11.25-22.5 22.5-22.5s22.5 11.25 22.5 22.5v241.875c0 11.25-11.25 22.5-22.5 22.5-5.625 0-11.25 0-16.875-5.625 0-5.625-5.625-11.25-5.625-16.875z m168.75-354.375l-118.125 123.75c-11.25 5.625-28.125 5.625-39.375 0 0-5.625-5.625-11.25-5.625-16.875 0-5.625 0-11.25 5.625-16.875l118.125-118.125c11.25-11.25 22.5-11.25 33.75 0 5.625 5.625 5.625 11.25 5.625 16.875 5.625 0 5.625 5.625 0 11.25z m-410.625-202.5l-61.875-61.875c-11.25-11.25-11.25-22.5 0-33.75 11.25-11.25 28.125-11.25 33.75 0l61.875 61.875c5.625 5.625 5.625 11.25 5.625 16.875s0 11.25-5.625 16.875c-5.625 5.625-22.5 5.625-33.75 0z"  horiz-adv-x="1024" />

    
    <glyph glyph-name="share" unicode="&#58882;" d="M778.602987 242.274138c-43.735084 0-82.508155-20.923542-107.114576-53.234435l-283.026028 168.531368c3.213181 12.398378 5.100158 25.314549 5.100158 38.715767 0 3.89061-0.302899 7.686053-0.573051 11.494799l283.161105 170.612773c24.713868-28.935006 61.412698-47.344285 102.452393-47.344285 74.43427 0 134.771473 60.338227 134.771473 134.76738 0 74.42506-60.338227 134.763286-134.771473 134.763286-74.424037 0-134.759193-60.334133-134.759193-134.763286 0-14.767332 2.445702-28.916587 6.837732-42.222637L369.926214 478.01421c-27.26497 43.37795-75.391061 72.290443-130.376373 72.290443-85.053118 0-154.017816-68.959581-154.017816-154.017816s68.963675-154.012699 154.017816-154.012699c45.589314 0 86.426395 19.925818 114.624621 51.3976L648.347364 141.523503c-2.829442-10.872628-4.490268-22.23235-4.490268-34.012651 0-74.43427 60.34232-134.76738 134.76738-134.76738 74.429153 0 134.763286 60.33311 134.763286 134.76738C913.388786 181.94000500000004 853.037257 242.274138 778.602987 242.274138L778.602987 242.274138 778.602987 242.274138zM778.602987 242.274138"  horiz-adv-x="1024" />

    
    <glyph glyph-name="heart-o" unicode="&#58881;" d="M734.53112889 860.51953778c-87.96387555 0-169.51978667-44.27320889-223.69621334-117.09098667-53.59388445 72.81777778-135.73233778 117.09098667-223.69621333 117.09098667-158.45148445 0-287.19331555-140.97521778-287.19331555-313.99025778 0-103.10997333 46.02083555-175.92775111 83.30353778-234.18197333C191.01923555 142.82752000000005 462.48391111-67.47022221999998 474.13475555-76.20835554999996c11.06830222-8.73813333 23.88423111-12.81592889 36.70016-12.8159289s25.63185778 4.07779555 36.70016 12.8159289c11.65084445 8.73813333 282.53297778 219.61841778 390.88583112 388.55566222 37.28270222 58.25422222 83.30353778 131.072 83.30353778 234.18197333 0 173.01504-128.74183111 313.99025778-287.19331556 313.99025778z"  horiz-adv-x="1024" />

    
    <glyph glyph-name="heart" unicode="&#58948;" d="M736.25 856.637c-88.104 0-169.783-44.344-224.05-117.273C458.527 812.298 376.259 856.637 288.154 856.637 129.459 856.637 0.512 715.443 0.512 542.1569999999999c0-103.27 46.09-176.205 83.43-234.547 107.94-169.79 379.833-380.411 391.496-389.166a58.808 58.808 0 0 1 36.757-12.836c12.835 0 25.671 4.085 36.756 12.836 11.674 8.755 282.977 219.965 391.5 389.166 37.346 58.347 83.436 131.276 83.436 234.547 0.005 173.286-128.937 314.48-287.636 314.48z m130.105-547.276c-99.763-140.027-310.973-299.894-321.48-307.477-9.917-7.588-21.59-11.673-32.675-11.673-11.669 0-22.754 3.502-32.671 11.673-10.506 7.578-217.63 169.196-321.485 313.308C124.79 367.703 71.695 433.05 71.695 525.23c0 155.203 86.35 264.305 228.132 264.305 78.766 0 164.537-75.264 212.373-140.61 48.43 65.346 133.611 140.61 212.377 140.61 142.362 0 234.553-109.102 234.553-264.305 0-92.175-58.937-163.942-92.775-215.87z"  horiz-adv-x="1024" />

    
    <glyph glyph-name="pull-down" unicode="&#58943;" d="M548.118 229.62599999999998c-8.156-8.155-19.224-15.728-29.71-13.398-10.486-1.748-20.389 6.408-28.545 13.398l-252.24 253.406c-12.816 12.816-12.816 33.788 0 46.604s33.787 12.815 46.603 0l234.765-241.173 235.347 241.173c12.815 12.815 33.787 12.815 46.603 0s12.816-33.788 0-46.604L548.118 229.62599999999998z"  horiz-adv-x="1024" />

    
    <glyph glyph-name="play1" unicode="&#58937;" d="M512 896C230.4 896 0 665.6 0 384c0-76.8 16-152 49.6-220.8v-1.6c0-1.6 1.6-1.6 1.6-3.2 6.4-8 19.2-8 33.6 0 14.4 6.4 20.8 20.8 16 32-28.8 60.8-43.2 126.4-43.2 193.6C57.6 633.6 262.4 838.4 512 838.4S966.4 635.2 966.4 384c0-249.6-203.2-454.4-454.4-454.4-76.8 0-152 19.2-219.2 56-9.6 8-24 3.2-35.2-9.6-8-11.2-9.6-25.6-1.6-33.6 1.6-1.6 1.6-3.2 3.2-3.2 76.8-44.8 164.8-67.2 252.8-67.2 281.6 0 512 230.4 512 512S793.6 896 512 896zM188.8 60.8a36.8 36.8 0 1 0-73.6 0 36.8 36.8 0 0 0 73.6 0zM707.2 326.4l-267.2-153.6c-28.8-16-64 4.8-64 36.8l1.6 308.8c0 32 35.2 52.8 64 36.8l265.6-155.2c27.2-16 27.2-57.6 0-73.6z"  horiz-adv-x="1024" />

    
    <glyph glyph-name="play" unicode="&#58886;" d="M748.8 473.6l-310.4 185.6c-16 9.6-32 12.8-51.2 12.8l0 0C332.8 672 288 627.2 288 569.6l0-371.2c0-57.6 44.8-102.4 99.2-102.4 19.2 0 35.2 6.4 51.2 12.8l310.4 185.6c32 19.2 48 51.2 48 86.4S780.8 454.4 748.8 473.6zM716.8 352l-310.4-185.6c-6.4-3.2-12.8-6.4-19.2-6.4-19.2 0-35.2 16-35.2 38.4L352 569.6C352 592 368 608 387.2 608c6.4 0 12.8-3.2 19.2-6.4l310.4-185.6C742.4 403.2 742.4 364.79999999999995 716.8 352zM940.8 662.4C931.2 678.4 912 681.6 896 672c-16-9.6-19.2-28.8-9.6-44.8 48-73.6 73.6-156.8 73.6-243.2 0-246.4-201.6-448-448-448S64 137.60000000000002 64 384 265.6 832 512 832c83.2 0 163.2-22.4 233.6-67.2 16-9.6 35.2-3.2 44.8 9.6 9.6 16 3.2 35.2-9.6 44.8C700.8 870.4 608 896 512 896 230.4 896 0 665.6 0 384s230.4-512 512-512 512 230.4 512 512C1024 483.2 995.2 579.2 940.8 662.4z"  horiz-adv-x="1024" />

    
    <glyph glyph-name="eye" unicode="&#58906;" d="M511.031952-19.618570999999974c-280.241612 0-507.371586 305.694307-507.371586 401.048025 0 125.922944 227.129974 401.034722 507.371586 401.034722 280.272311 0 507.402285-304.966737 507.402285-401.034722C1018.433214 281.08814199999995 791.304264-19.618570999999974 511.031952-19.618570999999974L511.031952-19.618570999999974 511.031952-19.618570999999974zM511.031952 719.037612c-245.215888 0-444.007443-232.69983-444.007443-337.609181 0-79.468936 198.793602-337.622484 444.007443-337.622484 245.216911 0 443.977767 262.182304 443.977767 337.622484C955.009719 458.884524 756.248863 719.037612 511.031952 719.037612L511.031952 719.037612 511.031952 719.037612zM511.031952 191.12213099999997c-105.109919 0-190.3063 85.195358-190.3063 190.3063 0 105.049544 85.196381 190.277648 190.3063 190.277648 105.047498 0 190.274578-85.22708 190.274578-190.277648C701.30653 276.317489 616.07945 191.12213099999997 511.031952 191.12213099999997L511.031952 191.12213099999997 511.031952 191.12213099999997zM511.031952 508.280538c-70.083172 0-126.849036-56.782238-126.849036-126.852106 0-70.083172 56.765865-126.85006 126.849036-126.85006 70.052472 0 126.851083 56.765865 126.851083 126.85006C637.882012 451.4983 581.084425 508.280538 511.031952 508.280538L511.031952 508.280538 511.031952 508.280538z"  horiz-adv-x="1024" />

    
    <glyph glyph-name="information" unicode="&#59102;" d="M514.8919999999999 832.3389999999999c-244.202 0-442.744-198.541-442.744-442.743 0-244.197 198.541-442.737 442.744-442.737 244.195 0 442.736 198.541 442.736 442.737 0 244.202-198.542 442.743-442.736 442.743v0zM584.0690000000002 227.0300000000001c-33.208-49.806-67.105-88.55-124.525-88.55-38.737 6.228-55.341 34.589-46.345 62.955l73.328 243.509c2.077 6.222-1.385 12.452-6.915 14.525-5.535 2.078-15.914-4.843-25.597-15.217l-43.582-54.653c-1.384 8.994 0 23.523 0 29.751 33.206 49.806 88.546 89.932 125.213 89.932 35.282-3.458 51.884-31.823 45.655-62.954l-74.019-244.89c-0.689-5.536 2.075-11.072 6.919-13.145 5.532-2.078 16.602 4.844 26.288 15.217l44.271 53.269c1.385-8.302-0.688-24.211-0.688-29.748v0zM574.3830000000002 545.247c-28.365 0-51.191 20.758-51.191 50.504 0 30.439 22.826 50.498 51.191 50.498 28.361 0 51.192-20.752 51.192-50.498-0.001-30.439-22.831-50.504-51.192-50.504v0zM574.3830000000002 545.247z"  horiz-adv-x="1024" />

    
    <glyph glyph-name="default-sort" unicode="&#59231;" d="M170.666667 448c-35.413333 0-64-28.586667-64-64s28.586667-64 64-64 64 28.586667 64 64S206.08 448 170.666667 448zM170.666667 704C135.253333 704 106.666667 675.413333 106.666667 640S135.253333 576 170.666667 576 234.666667 604.586667 234.666667 640 206.08 704 170.666667 704zM170.666667 192c-35.413333 0-64-29.013333-64-64s29.013333-64 64-64 64 29.013333 64 64S206.08 192 170.666667 192zM298.666667 85.33333300000004l597.333333 0 0 85.333333L298.666667 170.66666699999996 298.666667 85.33333300000004zM298.666667 341.33333300000004l597.333333 0 0 85.333333L298.666667 426.666667 298.666667 341.33333300000004zM298.666667 682.666667l0-85.333333 597.333333 0L896 682.666667 298.666667 682.666667z"  horiz-adv-x="1024" />

    
    <glyph glyph-name="sort" unicode="&#58988;" d="M375-2c-19.8 0-36 16.2-36 36V734c0 19.8 16.2 36 36 36s36-16.2 36-36v-700c0-19.8-16.2-36-36-36zM398.2 6.399999999999977c-15.2-12.7-38-10.7-50.7 4.4L136.6 262.1c-12.7 15.2-10.7 38 4.4 50.7 15.2 12.7 38 10.7 50.7-4.4l210.8-251.3c12.8-15.2 10.8-38-4.3-50.7zM649 770c19.8 0 36-16.2 36-36v-700c0-19.8-16.2-36-36-36s-36 16.2-36 36V734c0 19.8 16.2 36 36 36zM625.8 761.6c15.2 12.7 38 10.7 50.7-4.4l210.8-251.3c12.7-15.2 10.7-38-4.4-50.7-15.2-12.7-38-10.7-50.7 4.4L621.4 710.9c-12.7 15.2-10.7 38 4.4 50.7z"  horiz-adv-x="1024" />

    
    <glyph glyph-name="desc" unicode="&#59238;" d="M459.2-24c16 0 32 8 40 22.4l148.8 236.8c14.4 22.4 8 52.8-14.4 65.6-22.4 14.4-57.6 8-72-14.4l-65.6-96V736c0 27.2-20.8 48-48 48s-48-20.8-48-48v-712c0-20.8 19.2-40 40-46.4 4.8-1.6 14.4-1.6 19.2-1.6z"  horiz-adv-x="1024" />

    
    <glyph glyph-name="asc" unicode="&#59239;" d="M448-16c-27.2 0-48 20.8-48 48V744c0 20.8 16 40 36.8 46.4 20.8 6.4 43.2-1.6 56-20.8l150.4-236.8c14.4-22.4 8-52.8-14.4-65.6-22.4-14.4-54.4-8-68.8 14.4l-64 96V32c0-27.2-20.8-48-48-48z"  horiz-adv-x="1024" />

    
    <glyph glyph-name="backtop" unicode="&#58885;" d="M76.8 416l422.4 422.4c6.4 6.4 19.2 6.4 25.6 0l422.4-422.4c6.4-6.4 12.8-6.4 19.2-6.4 6.4 0 12.8 0 19.2 6.4 12.8 12.8 12.8 25.6 0 38.4L556.8 876.8c-25.6 25.6-76.8 25.6-102.4 0L32 454.4C25.6 448 25.6 428.8 32 416S64 403.2 76.8 416zM32 224L140.8 224 140.8-121.60000000000002 192-121.60000000000002 192 224 300.8 224 300.8 262.4 32 262.4ZM499.2 268.79999999999995c-57.6 0-102.4-19.2-134.4-57.6-32-38.4-51.2-89.6-51.2-147.2 0-57.6 19.2-102.4 51.2-140.8C396.8-108.79999999999995 441.6-128 492.8-128c57.6 0 102.4 19.2 134.4 57.6s51.2 89.6 51.2 147.2c0 57.6-19.2 102.4-51.2 140.8C601.6 256 556.8 268.79999999999995 499.2 268.79999999999995zM595.2-44.799999999999955c-25.6-25.6-57.6-38.4-96-38.4-38.4 0-70.4 12.8-96 44.8-25.6 25.6-38.4 64-38.4 115.2 0 44.8 12.8 83.2 38.4 115.2 25.6 25.6 57.6 44.8 96 44.8 38.4 0 70.4-12.8 96-38.4 25.6-25.6 32-64 32-115.2C627.2 19.200000000000045 614.4-12.799999999999955 595.2-44.799999999999955zM960 236.79999999999995c-25.6 19.2-57.6 32-96 32l-108.8 0 0-384 51.2 0 0 147.2 51.2 0c38.4 0 76.8 12.8 102.4 32 25.6 25.6 38.4 51.2 38.4 89.6C998.4 185.60000000000002 985.6 217.60000000000002 960 236.79999999999995zM921.6 89.60000000000002c-12.8-12.8-38.4-19.2-70.4-19.2l-44.8 0 0 153.6 51.2 0c57.6 0 89.6-25.6 89.6-76.8C947.2 121.60000000000002 934.4 102.39999999999998 921.6 89.60000000000002z"  horiz-adv-x="1024" />

    
    <glyph glyph-name="online-service" unicode="&#58923;" d="M829.318042 500.39494l0 34.388205c0 163.820066-133.287679 297.107745-297.107745 297.107745l-41.373293 0c-163.820066 0-297.107745-133.287679-297.107745-297.107745l0-34.388205c-63.956637-13.401218-112.1298-70.216201-112.1298-138.097218l0-37.586037c0-77.80811 63.284325-141.113925 141.093459-141.113925l61.903885 0c17.746176 0 32.145118 14.397918 32.145118 32.145118L316.741921 471.267553c0 17.746176-14.397918 32.145118-32.145118 32.145118l-26.578332 0 0 31.370475c0 128.369669 104.448864 232.818533 232.818533 232.818533l41.373293 0c128.369669 0 232.818533-104.448864 232.818533-232.818533l0-31.370475-26.578332 0c-17.746176 0-32.145118-14.397918-32.145118-32.145118l0-255.524674c0-17.746176 14.397918-32.145118 32.145118-32.145118l34.545794 0c-11.70867-67.673286-60.616566-122.56343-126.917598-141.840472-6.966669 32.302707-35.688827 56.602136-70.047356 56.602136L500.400824 98.35942399999999c-39.552831 0-71.718415-32.165584-71.718415-71.718415l0-17.349133c0-39.532365 32.165584-71.697949 71.718415-71.697949l75.631538 0c35.518958 0 64.86431 26.00528 70.52524 59.924811 90.709955 21.234627 157.466358 95.560426 169.781848 187.05014 70.298066 7.974625 125.107369 67.74594 125.107369 140.142807l0 37.586037C941.447842 430.179762 893.272633 486.993722 829.318042 500.39494zM252.451686 247.88799600000004l-29.758768 0c-42.357713 0-76.804247 34.468023-76.804247 76.824713l0 37.586037c0 42.357713 34.446533 76.824713 76.804247 76.824713l29.758768 0L252.451686 247.88799600000004zM604.891643 9.292899000000034c0-15.905248-12.954033-28.837792-28.859281-28.837792L500.400824-19.544893000000002c-15.905248 0-28.859281 12.933567-28.859281 28.837792l0 17.349133c0 15.905248 12.954033 28.859281 28.859281 28.859281l75.631538 0c15.905248 0 28.859281-12.954033 28.859281-28.859281L604.891643 9.292899000000034zM877.15863 324.712709c0-42.357713-34.446533-76.824713-76.804247-76.824713l-29.758768 0 0 191.235462 29.758768 0c42.357713 0 76.804247-34.468023 76.804247-76.824713L877.15863 324.712709z"  horiz-adv-x="1024" />

    
    <glyph glyph-name="wechat" unicode="&#58894;" d="M670.580834 528.258593c10.287025 0 20.465133-0.793462 30.644231-1.915197C673.753675 654.226674 537.115324 749.194798 381.051135 749.194798c-174.45073 0-317.326852-118.853913-317.326852-269.856541 0-87.143924 47.55176-158.691415 127.006897-214.287721l-31.73749-95.433296 110.973768 55.596306c39.618147-7.76974 71.465546-15.869241 111.083693-15.869241 9.959248 0 19.809577 0.437703 29.549965 1.204192-6.128853 21.231605-9.740404 43.447551-9.740404 66.539894C400.860696 415.724379 519.932973 528.258593 670.580834 528.258593zM500.01547 614.252785c23.96775 0 39.727065-15.732341 39.727065-39.617635 0-23.749402-15.759315-39.673102-39.727065-39.673102-23.748906 0-47.607722 15.9237-47.607722 39.673102C452.407748 598.575414 476.266579 614.252785 500.01547 614.252785zM277.957033 534.962048c-23.858832 0-47.826582 15.9237-47.826582 39.673102 0 23.88531 23.96775 39.617635 47.826582 39.617635 23.803861 0 39.618147-15.677371 39.618147-39.617635C317.575164 550.885747 301.760894 534.962048 277.957033 534.962048zM960.274422 280.91977599999996c0 126.843504-126.952934 230.238394-269.55724 230.238394-151.029602 0-269.883019-103.450357-269.883019-230.238394 0-127.172785 118.908388-230.266887 269.883019-230.266887 31.5756 0 63.47797 7.879666 95.215444 15.868249l87.006018-47.715649-23.857824 79.345212C912.775618 145.97726699999998 960.274422 209.34430499999996 960.274422 280.91977599999996zM603.164542 320.646841c-15.760323 0-31.738481 15.650397-31.738481 31.738481 0 15.759315 15.978175 31.683527 31.738481 31.683527 24.076684 0 39.727065-15.924211 39.727065-31.683527C642.891607 336.297238 627.24121 320.646841 603.164542 320.646841zM777.724191 320.646841c-15.650397 0-31.51863 15.650397-31.51863 31.738481 0 15.759315 15.814286 31.683527 31.51863 31.683527 23.857824 0 39.728072-15.924211 39.728072-31.683527C817.452247 336.297238 801.582015 320.646841 777.724191 320.646841z"  horiz-adv-x="1024" />

    
    <glyph glyph-name="qqgroup" unicode="&#58880;" d="M480.926 219.683c-20.093 3.164-20.547 57.925-20.547 57.925s59.023 57.929 71.884 135.822c34.608 0 55.982 82.814 21.373 111.952 1.443 30.671 44.48 240.783-173.394 240.783-217.875 0-174.836-210.112-173.394-240.783-34.609-29.137-13.237-111.952 21.366-111.952 12.861-77.893 71.889-135.822 71.889-135.822s-0.46-54.762-20.546-57.925c-64.702-10.213-306.311-115.865-306.311-231.725h813.981c0.007 115.859-241.601 221.511-306.303 231.725v0zM480.926 219.683zM751.381 233.20500000000004c-18.941 2.981-19.375 54.624-19.375 54.624s55.659 54.628 67.789 128.08c32.628 0 52.787 78.094 20.151 105.567 1.365 28.924 41.945 227.053-163.509 227.053-20.605 0-38.724-1.999-54.67-5.614 89.136-58.157 63.131-189.258 62.013-212.986 34.608-29.135 13.234-111.945-21.367-111.945-9.974-60.395-47.683-108.775-64.134-127.477 1.65-1.754 2.595-2.678 2.595-2.678s-0.207-23.682-6.218-39.894c2.917-11.773 7.904-22.367 16.413-23.702 60.543-9.554 275.985-102.684 303.419-209.538h145.74c0 109.259-227.837 208.889-288.847 218.514v0zM751.381 233.20500000000004z"  horiz-adv-x="1024" />

    
    <glyph glyph-name="teacher" unicode="&#58994;" d="M377.681095 844.8308930000001c70.357522 83.149798 223.864842 57.565245 268.63781-44.772968 38.37683-76.75366 0-166.299597-70.357522-211.072565 95.942075 6.396138 166.299597-70.357522 217.468704-140.715043 19.188415 38.37683 31.980692 83.149798 63.961383 121.526628 44.772968 51.169107 140.715043 19.188415 153.50732-51.169107 6.396138-44.772968-19.188415-83.149798-31.980692-115.13049-25.584553-57.565245-51.169107-115.13049-89.545936-172.695734-25.584553-44.772968-95.942075-57.565245-134.318905-25.584554-19.188415 19.188415-38.37683 31.980692-57.565245 51.169107 0-25.584553 6.396138-51.169107 6.396138-76.75366 31.980692 0 76.75366 6.396138 102.338213-25.584553 57.565245-70.357522 115.13049-147.111182 172.695735-217.468704 19.188415-25.584553 0-70.357522-31.980691-63.961383H45.081902c-31.980692 0-44.772968 51.169107-19.188415 70.357522 44.772968 57.565245 95.942075 121.526628 140.715043 179.091873-31.980692 31.980692-76.75366 76.75366-57.565245 127.922767 25.584553 63.961383 63.961383 121.526628 95.942075 179.091873 25.584553 44.772968 44.772968 89.545937 89.545937 127.922766 38.37683 31.980692 89.545937 31.980692 134.318905 38.37683-102.338213 38.37683-127.922767 179.091873-51.169107 249.449395z m63.961383-19.188415c-63.961383-31.980692-76.75366-134.318905-12.792276-179.091873 57.565245-51.169107 159.903458-6.396138 172.695735 63.961383C627.13049 800.057925 518.396138 876.811585 441.642478 825.642478zM332.908127 518.627838c-31.980692-12.792277-44.772968-44.772968-63.961384-70.357521-44.772968-76.75366-83.149798-147.111182-121.526628-223.864842 57.565245-63.961383 108.734352-127.922767 172.695735-191.88415 31.980692-31.980692 83.149798 25.584553 51.169107 51.169107-38.37683 51.169107-83.149798 95.942075-121.526629 147.111182 31.980692 44.772968 57.565245 95.942075 89.545937 140.715043v-166.299597c6.396138-6.396138 19.188415-25.584553 25.584553-25.584553h294.222364c-12.792277 76.75366-12.792277 153.50732-19.188415 230.26098 44.772968-51.169107 83.149798-95.942075 127.922766-140.715043 12.792277-12.792277 31.980692-38.37683 57.565245-25.584554 19.188415 6.396138 25.584553 31.980692 38.37683 51.169107 31.980692 70.357522 70.357522 134.318905 95.942075 204.676426-19.188415 19.188415-31.980692 38.37683-57.565245 25.584554-44.772968-57.565245-63.961383-127.922767-102.338213-191.88415-44.772968 51.169107-83.149798 108.734352-127.922767 153.50732-31.980692 51.169107-95.942075 44.772968-140.715043 51.169106-6.396138-19.188415-19.188415-38.37683-19.188415-63.961383 12.792277-70.357522 25.584553-140.715043 38.37683-217.468703-19.188415-19.188415-31.980692-38.37683-51.169107-57.565245-19.188415 19.188415-38.37683 31.980692-57.565245 51.169107 6.396138 95.942075 44.772968 191.88415 19.188415 281.430086-38.37683 0-89.545937 0-127.922766-12.792277z m70.357521-383.768299c51.169107-51.169107 44.772968-147.111182-25.584553-166.299597-89.545937-31.980692-134.318905 70.357522-185.488012 115.13049L57.874178-89.00530300000003h889.063229c-63.961383 76.75366-115.13049 153.50732-179.091874 223.864842-121.526628 6.396138-243.053257 0-364.579885 0z"  horiz-adv-x="1024" />

    
    <glyph glyph-name="crown" unicode="&#58895;" d="M200.7 103.60000000000002L187.5 174h642.7L817 103.60000000000002c-4.4-24.2-26.4-41.8-50.6-41.8h-515c-26.5 0-46.3 17.6-50.7 41.8zM894 691.3c-35.2 0-61.6-28.6-61.6-61.6 0-17.6 6.6-33 17.6-44v-4.4c0-85.8-70.4-156.3-156.3-156.3-85.8 0-156.3 70.4-156.3 156.3v2.2c22 11 37.4 35.2 37.4 61.6 0 37.4-30.8 68.2-68.2 68.2-37.4 0-68.2-30.8-68.2-68.2 0-28.6 17.6-55 44-63.8 0-85.8-70.4-156.3-156.3-156.3-85.8 0-156.3 70.4-156.3 156.3v4.4c11 11 17.6 26.4 17.6 44 0 35.2-28.6 61.6-61.6 61.6-35.2 0-61.6-28.6-61.6-61.6s26.4-59.4 57.2-61.6L183 220.29999999999995h656L900.6 568c33 2.2 59.4 28.6 59.4 61.6-4.4 33.1-30.8 61.7-66 61.7z"  horiz-adv-x="1024" />

    
    <glyph glyph-name="qq" unicode="&#59063;" d="M135.125 314.53125c-31.8375-79.3125-37.125-154.96875-11.25-168.75 17.71875-9.73125 45.39375 12.54375 71.38125 53.15625a224.4375 224.4375 0 0 1 72.1125-116.55c-38.08125-14.85-63.05625-39.09375-63.05625-66.4875 0-45 67.5-81.61875 150.46875-81.61875 74.98125 0 137.08125 29.5875 148.55625 68.625h17.83125C532.53125-36.41250000000002 594.4625-66 669.5-66c83.19375 0 150.46875 36.45 150.46875 81.61875 0 27.39375-24.91875 51.46875-63.05625 66.4875a225 225 0 0 1 72.05625 116.55c25.9875-40.6125 53.49375-62.8875 71.325-53.15625 25.7625 14.0625 20.64375 89.71875-11.25 168.75a224.4375 224.4375 0 0 1-85.10625 118.125c0.3375 3.76875 0.675 7.93125 0.675 11.925a124.59375 124.59375 0 0 1-17.325 64.40625 28.125 28.125 0 0 1 0 4.275 69.75 69.75 0 0 1-6.80625 30.375C773.9 705.4125 673.8875 834 512 834S249.93125 705.4125 243.35 543.75a72.28125 72.28125 0 0 1-6.975-30.375 34.59375 34.59375 0 0 1 0-4.275 125.775 125.775 0 0 1-16.875-64.35c0-4.05 0-8.1 0.50625-12.0375A223.59375 223.59375 0 0 1 135.125 314.53125z m0 0"  horiz-adv-x="1024" />

    


  </font>
</defs>
</svg>
