<?xml version="1.0" standalone="no"?>
<!DOCTYPE svg PUBLIC "-//W3C//DTD SVG 1.1//EN" "http://www.w3.org/Graphics/SVG/1.1/DTD/svg11.dtd" >
<svg xmlns="http://www.w3.org/2000/svg">
<metadata>
Created by FontForge 20120731 at Fri Jun 10 16:16:39 2016
 By admin
</metadata>
<defs>
<font id="iconfont" horiz-adv-x="1024" >
  <font-face 
    font-family="iconfont"
    font-weight="500"
    font-stretch="normal"
    units-per-em="1024"
    panose-1="2 0 6 3 0 0 0 0 0 0"
    ascent="896"
    descent="-128"
    x-height="792"
    bbox="0 -212 1024 896"
    underline-thickness="50"
    underline-position="-100"
    unicode-range="U+0078-E62F"
  />
<missing-glyph horiz-adv-x="374" 
d="M34 0v682h272v-682h-272zM68 34h204v614h-204v-614z" />
    <glyph glyph-name=".notdef" horiz-adv-x="374" 
d="M34 0v682h272v-682h-272zM68 34h204v614h-204v-614z" />
    <glyph glyph-name=".null" horiz-adv-x="0" 
 />
    <glyph glyph-name="nonmarkingreturn" horiz-adv-x="341" 
 />
    <glyph glyph-name="x" unicode="x" horiz-adv-x="1001" 
d="M281 543q-27 -1 -53 -1h-83q-18 0 -36.5 -6t-32.5 -18.5t-23 -32t-9 -45.5v-76h912v41q0 16 -0.5 30t-0.5 18q0 13 -5 29t-17 29.5t-31.5 22.5t-49.5 9h-133v-97h-438v97zM955 310v-52q0 -23 0.5 -52t0.5 -58t-10.5 -47.5t-26 -30t-33 -16t-31.5 -4.5q-14 -1 -29.5 -0.5
t-29.5 0.5h-32l-45 128h-439l-44 -128h-29h-34q-20 0 -45 1q-25 0 -41 9.5t-25.5 23t-13.5 29.5t-4 30v167h911zM163 247q-12 0 -21 -8.5t-9 -21.5t9 -21.5t21 -8.5q13 0 22 8.5t9 21.5t-9 21.5t-22 8.5zM316 123q-8 -26 -14 -48q-5 -19 -10.5 -37t-7.5 -25t-3 -15t1 -14.5
t9.5 -10.5t21.5 -4h37h67h81h80h64h36q23 0 34 12t2 38q-5 13 -9.5 30.5t-9.5 34.5q-5 19 -11 39h-368zM336 498v228q0 11 2.5 23t10 21.5t20.5 15.5t34 6h188q31 0 51.5 -14.5t20.5 -52.5v-227h-327z" />
    <glyph glyph-name="uniE600" unicode="&#xe600;" 
d="M878 331h-327q-9 0 -15 -6t-6 -15v-327q0 -9 6 -15t15 -6h327q9 0 15 6t6 15v327q0 9 -6 15t-15 6zM858 3h-287v287h287v-287zM431 331h-328q-8 0 -14 -6t-6 -15v-327q0 -9 6 -15t14 -6h328q8 0 14 6t6 15v327q0 9 -6 15t-14 6zM410 3h-286v287h286v-287zM431 780h-328
q-8 0 -14 -6t-6 -14v-327q0 -9 6 -15t14 -6h328q8 0 14 6t6 15v327q0 8 -6 14t-14 6zM410 453h-286v286h286v-286zM966 618l-215 215q-6 6 -14.5 6t-14.5 -6l-214 -215q-6 -6 -6 -14.5t6 -14.5l214 -214q6 -6 14.5 -6t14.5 6l215 214q6 6 6 14.5t-6 14.5zM737 418l-186 186
l186 185l185 -185z" />
    <glyph glyph-name="uniE601" unicode="&#xe601;" 
d="M1007 22q-27 -39 -70 -84q-63 -65 -97 -65h-1h-1q-75 2 -162 43q-161 77 -358 274t-274 358q-41 88 -43 162v1q-1 34 65 98q45 44 84 70q26 19 54 16t42 -22q8 -11 68 -101.5t70 -107.5q20 -31 -5 -78q-10 -20 -53 -94q44 -63 137 -157q49 -48 91.5 -84.5t55.5 -45.5
t19 -13q7 -4 9.5 -12.5t-2 -15.5t-12.5 -9.5t-16 2.5q-59 35 -174 149q-115 116 -149 174q-6 11 0 21q51 91 58 104q14 26 7 37q-10 16 -70 106t-67 101q-4 5 -14 5.5t-26 -8.5q-36 -25 -78 -66q-24 -23 -37 -40t-14.5 -21.5t-1.5 -6.5q2 -67 39 -146q74 -155 266 -347
t346 -266q80 -37 147 -39q4 0 15 6q21 14 53 47q41 43 66 78q9 16 8.5 26t-5.5 14q-12 8 -102.5 68t-104.5 69q-9 5 -31 -4q-3 -1 -6 -3q-8 -4 -16 -1.5t-12 10t-1.5 15.5t10.5 12q4 3 9 5q41 17 68 1q15 -9 105.5 -69t104.5 -70q20 -14 22.5 -42t-16.5 -54zM1000 851v-259
q0 -8 -6 -14t-14.5 -6t-14.5 6t-6 14v189l-226 -227q-6 -6 -14.5 -6t-14.5 6t-6 14.5t6 14.5l226 227h-188q-9 0 -15 6t-6 14.5t6 14.5t15 6h258z" />
    <glyph glyph-name="uniE602" unicode="&#xe602;" 
d="M1002 675h-234l-76 113q-6 9 -17 9h-326q-11 0 -17 -9l-76 -113h-234q-8 0 -14 -6t-6 -15v-652q0 -9 6 -15t14 -6h980q8 0 14 6t6 15v652q0 9 -6 15t-14 6zM981 22h-938v612h224q11 0 17 9l76 113h304l76 -113q6 -9 17 -9h224v-612zM777 348q0 -18 -2 -36q-1 -8 -8 -13
t-15.5 -4t-13.5 8t-4 15q2 15 2 30q0 93 -65.5 159t-158.5 66t-158.5 -66t-65.5 -159t65.5 -158.5t158.5 -65.5q87 0 151 59q7 6 15.5 5.5t14 -7t5 -15t-6.5 -13.5q-76 -70 -179 -70q-110 0 -187.5 77.5t-77.5 187.5t77.5 188t187.5 78t187.5 -78t77.5 -188z" />
    <glyph glyph-name="uniE603" unicode="&#xe603;" 
d="M342 835h-245q-9 0 -15 -6t-6 -15v-245q0 -9 6 -15t15 -6h245q8 0 14 6t6 15v245q0 9 -6 15t-14 6zM321 589h-204v205h204v-205zM927 835h-245q-8 0 -14 -6t-6 -15v-245q0 -9 6 -15t14 -6h245q9 0 15 6t6 15v245q0 9 -6 15t-15 6zM907 589h-204v205h204v-205zM927 246
h-245q-8 0 -14 -6t-6 -15v-265q0 -9 6 -15t14 -6h245q9 0 15 6t6 15v265q0 9 -6 15t-15 6zM907 -20h-204v225h204v-225zM948 456.5q0 -8.5 -6 -14.5t-15 -6h-830q-9 0 -15 6t-6 14.5t6 14.5t15 6h830q9 0 15 -6t6 -14.5zM482 811v-242q0 -9 -6 -15t-14.5 -6t-14.5 6t-6 15
v242q0 8 6 14t14.5 6t14.5 -6t6 -14zM589 811v-242q0 -9 -6 -15t-14.5 -6t-14.5 6t-6 15v242q0 8 6 14t14.5 6t14.5 -6t6 -14zM426 225v-268q0 -8 -6 -14t-14.5 -6t-14.5 6t-6 14v268q0 9 6 15t14.5 6t14.5 -6t6 -15zM557 352v-395q0 -8 -6 -14t-14.5 -6t-14.5 6t-6 14v395
q0 8 6 14t14.5 6t14.5 -6t6 -14zM166 352v-395q0 -8 -6 -14t-14.5 -6t-14.5 6t-6 14v395q0 8 6 14t14.5 6t14.5 -6t6 -14zM296 225v-268q0 -8 -6 -14t-14.5 -6t-14.5 6t-6 14v268q0 9 6 15t14.5 6t14.5 -6t6 -15zM948 351.5q0 -8.5 -6 -14.5t-15 -6h-245q-8 0 -14 6t-6 14.5
t6 14.5t14 6h245q9 0 15 -6t6 -14.5zM431 351.5q0 -8.5 -6 -14.5t-15 -6h-137q-8 0 -14 6t-6 14.5t6 14.5t14 6h137q9 0 15 -6t6 -14.5z" />
    <glyph glyph-name="uniE604" unicode="&#xe604;" 
d="M854 610l-34 -664q-2 -21 -18 -36t-37 -15h-475q-22 0 -38 15t-17 36v1l-35 663q-1 9 5 15t14.5 6.5t14.5 -5t7 -14.5l34 -663q1 -5 5.5 -9t9.5 -4h475q5 0 9 4t5 9l34 663q1 9 7.5 14.5t14.5 5t14 -6.5t5 -15zM936 754.5q0 -8.5 -6 -14.5t-14 -6h-266q-9 0 -15 6t-6 14
v62q0 8 -6 14t-14 6h-164q-8 0 -14 -6t-6 -14v-62q0 -8 -6 -14t-15 -6h-265q-9 0 -15 6t-6 14.5t6 14.5t15 6h245v41q0 25 18 43t43 18h164q25 0 43 -18t18 -43v-41h246q8 0 14 -6t6 -14.5zM640 591v-573q0 -8 -6 -14t-14.5 -6t-14.5 6t-6 14v573q0 8 6 14t14.5 6t14.5 -6
t6 -14zM456 591v-573q0 -8 -6 -14t-14.5 -6t-14.5 6t-6 14v573q0 8 6 14t14.5 6t14.5 -6t6 -14z" />
    <glyph glyph-name="uniE605" unicode="&#xe605;" 
d="M266.5 265q-50.5 0 -86.5 -36t-36 -87t36 -87t86.5 -36t86.5 36t36 87t-36 87t-86.5 36zM266.5 60q-33.5 0 -57.5 24t-24 58t24 58t57.5 24t57.5 -24t24 -58t-24 -58t-57.5 -24zM798.5 19q-50.5 0 -86.5 36t-36 87t36 87t86.5 36t86.5 -36t36 -87t-36 -87t-86.5 -36z
M798 224q-34 0 -57.5 -24t-23.5 -58t23.5 -58t57.5 -24t58 24t24 58t-24 58t-58 24zM594 613v-451v450v1zM1023 379v-237q0 -9 -6 -15t-14 -6h-41q-9 0 -15 6t-6 14.5t6 14.5t15 6h20v212l-136 218h-211v-450q0 -9 -6 -15t-15 -6h-163q-8 0 -14 6t-6 14.5t6 14.5t14 6h143
v573h-552v-573h51q9 0 15 -6t6 -14.5t-6 -14.5t-15 -6h-72q-8 0 -14 6t-6 15v613q0 9 6 15t14 6h593q9 0 15 -6t6 -15v-122h223q11 0 17 -10l145 -233q3 -5 3 -11zM818 395h-90l-1 108h91v-108z" />
    <glyph glyph-name="uniE606" unicode="&#xe606;" 
d="M701 747.5q0 -8.5 -6 -14.5t-14.5 -6t-14.5 6t-6 14.5t6 14.5t14.5 6t14.5 -6t6 -14.5zM823 624.5q0 -8.5 -6 -14t-14.5 -5.5t-14.5 5.5t-6 14t6 14.5t14.5 6t14.5 -6t6 -14.5zM578 624.5q0 -8.5 -6 -14t-14.5 -5.5t-14.5 5.5t-6 14t6 14.5t14.5 6t14.5 -6t6 -14.5z
M517 563.5q0 -8.5 -6 -14.5t-14.5 -6t-14.5 6t-6 14.5t6 14.5t14.5 6t14.5 -6t6 -14.5zM578 502.5q0 -8.5 -6 -14.5t-14.5 -6t-14.5 6t-6 14.5t6 14.5t14.5 6t14.5 -6t6 -14.5zM639 686.5q0 -8.5 -6 -14.5t-14 -6t-14 6t-6 14.5t6 14.5t14 6t14 -6t6 -14.5zM762 686.5
q0 -8.5 -6 -14.5t-14.5 -6t-14.5 6t-6 14.5t6 14.5t14.5 6t14.5 -6t6 -14.5zM701 502.5q0 -8.5 -6 -14.5t-14.5 -6t-14.5 6t-6 14.5t6 14.5t14.5 6t14.5 -6t6 -14.5zM639 563.5q0 -8.5 -6 -14.5t-14 -6t-14 6t-6 14.5t6 14.5t14 6t14 -6t6 -14.5zM884 563.5q0 -8.5 -6 -14.5
t-14.5 -6t-14.5 6t-6 14.5t6 14.5t14.5 6t14.5 -6t6 -14.5zM639 441.5q0 -8.5 -6 -14.5t-14 -6t-14 6t-6 14.5t6 14.5t14 6t14 -6t6 -14.5zM762 441.5q0 -8.5 -6 -14.5t-14.5 -6t-14.5 6t-6 14.5t6 14.5t14.5 6t14.5 -6t6 -14.5zM968 556l-252 255q-18 18 -44 18
q-25 0 -43 -18l-543 -548q-18 -19 -18 -44.5t18 -43.5l195 -197q6 -6 14.5 -6t14.5 6t6 14.5t-6 14.5l-195 197q-6 6 -6 15t6 15l259 261q1 -2 3 -4l290 -269l-213 -215q-10 -10 -4.5 -22.5t18.5 -12.5h375q9 0 15 6t6 14.5t-6 14.5t-15 6h-325l450 455q18 18 18 44t-18 44z
M945 507q-4 16 -20 16q-8 0 -14 -6t-6 -14.5t5.5 -14.5t14.5 -6l-41 -41q0 9 -6 15t-14.5 6t-14.5 -6t-6 -14.5t6 -14.5t15 -6l-41 -41q0 9 -6 14.5t-14.5 5.5t-14.5 -5.5t-6 -14t6 -14.5t15 -6l-41 -42v1q0 8 -6 14t-14.5 6t-14.5 -6t-6 -14.5t6 -14.5t14 -6q1 0 2 1
l-43 -43q1 1 1 2q0 8 -6 14t-15 6q-6 0 -11 -3l-34 32q4 5 4 12q0 8 -6 14t-14 6t-13 -5l-34 31q6 6 6 15t-6 14.5t-14 5.5q-10 0 -16 -7l-34 32q9 6 9 16q0 9 -6 15t-14 6q-12 0 -18 -10l-35 32q12 6 12 18q0 9 -6 15t-15 6q-13 0 -19 -13l-11 11q-1 1 -3 2l256 259
q3 3 6.5 4.5t7.5 1.5q9 0 15 -6l252 -255q8 -8 6 -20zM701 380.5q0 -8.5 -6 -14.5t-14.5 -6t-14.5 6t-6 14.5t6 14t14.5 5.5t14.5 -5.5t6 -14zM823 502.5q0 -8.5 -6 -14.5t-14.5 -6t-14.5 6t-6 14.5t6 14.5t14.5 6t14.5 -6t6 -14.5zM762 563.5q0 -8.5 -6 -14.5t-14.5 -6
t-14.5 6t-6 14.5t6 14.5t14.5 6t14.5 -6t6 -14.5zM701 624.5q0 -8.5 -6 -14t-14.5 -5.5t-14.5 5.5t-6 14t6 14.5t14.5 6t14.5 -6t6 -14.5z" />
    <glyph glyph-name="uniE607" unicode="&#xe607;" 
d="M970 470l-241 -196l80 -300q2 -9 -2.5 -16t-12.5 -9q-2 -1 -5 -1q-16 0 -20 15l-83 313q-4 13 7 22l210 170l-271 15q-13 1 -18 13l-97 253l-98 -253q-4 -12 -18 -13l-270 -15l210 -170q10 -9 7 -22l-70 -262l228 148q11 7 22 0l113 -73q7 -5 8.5 -13t-3 -15.5t-13 -9
t-15.5 3.5l-101 65l-261 -169q-12 -7 -23.5 1t-7.5 22l80 300l-241 196q-11 9 -7 22.5t18 13.5l311 17l112 290q5 13 19 13t19 -13l112 -290l310 -17q14 0 18.5 -13.5t-6.5 -22.5z" />
    <glyph glyph-name="uniE608" unicode="&#xe608;" 
d="M854 557zM874 863h-694q-8 0 -14 -6t-6 -15v-898q0 -8 6 -14t14 -6h694q8 0 14 6t6 14v898q0 9 -6 15t-14 6zM854 -35h-653v857h653v-857zM781 677.5q0 -8.5 -6 -14.5t-15 -6h-466q-8 0 -14 6t-6 14.5t6 14.5t14 6h466q9 0 15 -6t6 -14.5zM781 550.5q0 -8.5 -6 -14.5
t-15 -6h-466q-8 0 -14 6t-6 14.5t6 14.5t14 6h466q9 0 15 -6t6 -14.5zM781 423.5q0 -8.5 -6 -14.5t-15 -6h-466q-8 0 -14 6t-6 14.5t6 14.5t14 6h466q9 0 15 -6t6 -14.5z" />
    <glyph glyph-name="uniE609" unicode="&#xe609;" 
d="M818 -29q-5 82 -67 133q-35 28 -119 61q-31 12 -46 19t-32 19.5t-23 25.5q-2 23 -2 62v5v4q13 13 25 38q14 28 19 56q10 5 18 15q15 20 20 56q3 30 -13 50q13 46 17 89q6 78 -22 124q-27 43 -79 53q-30 38 -106 38q-114 -2 -164 -68q-59 -79 -22 -235q-17 -21 -13 -51
q4 -36 20 -56q8 -10 18 -15q5 -26 18 -53t27 -41v-9q0 -39 -2 -62q-8 -19 -31.5 -32.5t-70.5 -31.5q-83 -33 -119 -61q-62 -51 -67 -133q-1 -9 5 -15.5t15 -6.5h776q9 0 15 6.5t5 15.5zM45 -10q9 49 50 82q30 24 108 55q28 11 42.5 17.5t34.5 17.5t31.5 24.5t18.5 30.5
q1 3 1 5q2 27 2 69v19q0 12 -11 18q-8 6 -21 32t-16 52q0 7 -5.5 12.5t-12.5 5.5q-2 0 -5 3t-6.5 12.5t-5.5 24.5q-2 17 6 22q13 8 9 23q-18 69 -16 122q3 56 28 89q38 50 131 52q61 0 76 -26q5 -8 15 -10q40 -5 59 -35q14 -24 16 -62t-3.5 -69.5t-15.5 -59.5q-5 -16 9 -24
q8 -6 6 -22q-2 -15 -5.5 -24.5t-6.5 -12.5t-5 -3q-7 0 -12.5 -5.5t-5.5 -12.5q-3 -26 -16 -52.5t-20 -31.5q-11 -6 -11 -18v-19q0 -42 2 -69q0 -2 1 -5q7 -17 18.5 -30.5t31.5 -24.5t34.5 -17.5t41.5 -17.5q78 -31 108 -55q40 -33 50 -82h-730zM1017 66.5q-6 -6.5 -15 -6.5
h-126q-8 0 -14 6t-6 14.5t6 14.5t14 6h102q-8 37 -39 63q-26 20 -90 46q-24 9 -36 14.5t-29 15t-27.5 21.5t-15.5 26q-1 3 -1 6q-2 22 -2 58v16q0 12 10 18q7 5 17 26.5t12 41.5q1 7 6 12t12 6q9 3 12 31q1 11 -4 15q-14 9 -8 24q7 23 12 49.5t3.5 58t-13.5 50.5
q-15 24 -47 28q-10 2 -15 11q-12 19 -61 19q-19 0 -34 -3q-9 -1 -16 4t-8 13.5t3.5 15t13.5 8.5q19 3 40 3h1q64 0 90 -32q45 -9 68 -45q39 -64 5 -181q14 -18 11 -43q-4 -31 -18 -49q-6 -8 -14 -13q-11 -50 -37 -78v-7q0 -32 1 -51q7 -15 27 -26t57 -25q70 -28 100 -52
q54 -44 58 -115q1 -8 -5 -14.5z" />
    <glyph glyph-name="uniE60A" unicode="&#xe60a;" 
d="M573 384q0 -25 -18 -43t-43 -18q-14 0 -27 6l-122 -123q-6 -6 -14.5 -6t-14.5 6t-6 14.5t6 14.5l123 123q-6 12 -6 26q0 20 11 36t30 22v331q0 9 6 15t14 6t14 -6t6 -15v-331q19 -6 30 -22t11 -36zM1024 384q0 -139 -70 -259q-5 -7 -13 -9.5t-15.5 2t-9.5 12.5t2 16
q65 110 65 238q0 96 -37 183q-36 85 -101 150t-150 101q-87 37 -183 37t-183 -37q-85 -36 -150 -101t-101 -150q-37 -87 -37 -183t37 -183q36 -85 101 -150t150 -101q87 -37 183 -37q88 0 170.5 32t147.5 91q6 6 14.5 5.5t14 -6.5t5.5 -14.5t-7 -14.5q-71 -65 -160 -99.5
t-185 -34.5q-104 0 -199 40q-92 39 -163 110t-110 163q-40 95 -40 199t40 199q39 92 110 163t163 110q95 40 199 40t199 -40q92 -39 163 -110t110 -163q40 -95 40 -199z" />
    <glyph glyph-name="uniE60B" unicode="&#xe60b;" 
d="M1015 353q-6 -6 -15 -6q-8 0 -14 6l-65 68v-524q0 -8 -6 -14t-14 -6h-266q-8 0 -14 6t-6 14.5t6 14.5t14 6h245v545l-367 383l-367 -383v-545h224v306q0 8 6 14t15 6h244q9 0 15 -6t6 -14.5t-6 -14.5t-15 -6h-224v-306q0 -8 -6 -14t-14 -6h-266q-8 0 -14 6t-6 14v524
l-65 -68q-6 -6 -14.5 -6t-14.5 6t-6 14.5t6 14.5l487 508q6 6 15 6t15 -6l487 -508q6 -6 6 -14.5t-6 -14.5z" />
    <glyph glyph-name="uniE60C" unicode="&#xe60c;" 
d="M671 87q-9 0 -15 6l-287 293q-6 6 -6 14.5t6 14.5l287 293q6 6 14.5 6t14.5 -6t6.5 -14.5t-5.5 -14.5l-274 -279l274 -278q6 -6 5.5 -14.5t-6.5 -14.5t-14 -6z" />
    <glyph glyph-name="uniE60D" unicode="&#xe60d;" 
d="M998 527q0 -76 -30 -147q-26 -63 -75 -122q-70 -83 -210 -179q-7 -4 -15 -2.5t-13 8.5t-3.5 15t8.5 13q136 93 202 171q95 114 95 243q0 94 -66 160t-159 66q-57 0 -106.5 -27t-81.5 -74l-17 -26l-17 26q-31 47 -81 74t-107 27q-93 0 -159 -66t-66 -160q0 -44 12.5 -87.5
t29.5 -77.5t48.5 -70.5t55.5 -60.5t66 -56t65 -48t65 -44q75 -50 101 -72q7 -6 7.5 -14.5t-4.5 -14.5q-6 -8 -16 -8q-7 0 -13 5q-25 21 -98 70q-50 33 -79.5 54t-75.5 58.5t-79 72.5q-59 64 -90 131q-36 78 -36 162q0 111 78 189t188 78q60 0 113.5 -25.5t91.5 -71.5
q38 46 91.5 71.5t113.5 25.5q110 0 188 -78t78 -189z" />
    <glyph glyph-name="uniE60E" unicode="&#xe60e;" 
d="M758 778.5q-96 95.5 -231 95.5t-230.5 -95.5t-95.5 -231.5q0 -101 49 -226q39 -99 107 -207q77 -124 155 -213q6 -7 15 -7q10 0 16 7q78 91 155 215q67 110 106 208q50 124 50 223q0 136 -96 231.5zM766 339q-37 -94 -103 -201q-62 -100 -136 -191q-74 89 -136 189
q-66 105 -103 200q-46 118 -46 211q0 119 83.5 202.5t201.5 83.5t202 -83.5t84 -202.5q0 -91 -47 -208zM670 527q0 -9 -6 -15t-14.5 -6t-14.5 6t-6 15q0 42 -30 72t-72 30t-72 -30t-30 -72t30 -72t72 -30q22 0 42 9q8 3 16 0t11.5 -10.5t0.5 -15.5t-11 -11q-28 -13 -59 -13
q-59 0 -101 42t-42 101t42 101t101 42t101 -42t42 -101z" />
    <glyph glyph-name="uniE60F" unicode="&#xe60f;" 
d="M916 605h-778q-8 0 -14 6t-6 14.5t6 14.5t14 6h778q9 0 15 -6t6 -14.5t-6 -14.5t-15 -6zM937 400.5q0 -8.5 -6 -14.5t-15 -6h-778q-8 0 -14 6t-6 14.5t6 14.5t14 6h778q9 0 15 -6t6 -14.5zM916 155h-778q-8 0 -14 6t-6 14.5t6 14.5t14 6h778q9 0 15 -6t6 -14.5t-6 -14.5
t-15 -6z" />
    <glyph glyph-name="uniE610" unicode="&#xe610;" 
d="M278 408zM191.5 283q-48.5 0 -83 34.5t-34.5 83t34.5 83t83 34.5t83 -34.5t34.5 -83t-34.5 -83t-83 -34.5zM191.5 477q-31.5 0 -54 -22.5t-22.5 -54t22.5 -54t54 -22.5t54 22.5t22.5 54t-22.5 54t-54 22.5zM527.5 283q-48.5 0 -83 34.5t-34.5 83t34.5 83t83 34.5
t82.5 -34.5t34 -83t-34 -83t-82.5 -34.5zM527.5 477q-31.5 0 -54 -22.5t-22.5 -54t22.5 -54t54 -22.5t53.5 22.5t22 54t-22 54t-53.5 22.5zM863 283q-49 0 -83 34.5t-34 83t34 83t82.5 34.5t83 -34.5t34.5 -83.5q0 -16 -5 -33q-2 -8 -9.5 -12t-15.5 -1.5t-12 10t-2 15.5
q3 10 3 21q0 32 -22.5 54.5t-54 22.5t-53.5 -22.5t-22 -54t22 -54t54 -22.5q18 0 33 8q8 4 16 1t11.5 -10.5t1 -15.5t-10.5 -12q-24 -12 -51 -12z" />
    <glyph glyph-name="uniE611" unicode="&#xe611;" 
d="M937 -27.5q0 -8.5 -6 -14.5t-15 -6h-778q-9 0 -15 6.5t-5 15.5q5 83 67 133q36 29 120 62q31 12 46.5 19t32.5 19t23 26q2 23 2 62v10q-15 14 -27.5 40.5t-18.5 53.5q-10 5 -18 15q-15 20 -19 56q-4 30 13 51q-38 157 22 235q50 67 164 69q76 0 106 -38q53 -10 79 -53
q29 -46 23 -124q-4 -44 -17 -90q16 -20 13 -50q-5 -36 -20 -56q-8 -10 -18 -15q-5 -28 -19 -57q-13 -25 -25 -38v-9q-1 -39 1 -62q9 -19 32.5 -32.5t69.5 -31.5q34 -14 53 -22.5t46.5 -26t45.5 -37.5q5 -7 4.5 -15.5t-7 -14t-15 -4.5t-14.5 7q-14 17 -37.5 32t-41 22.5
t-49.5 20.5q-28 11 -42 17t-34 17.5t-32 25t-18 30.5q-1 2 -1 5q-3 27 -2 69v19q0 12 11 18q7 6 19.5 32.5t15.5 52.5q1 7 6.5 12t12.5 6q2 0 5 3t6.5 12.5t5.5 24.5q2 16 -6 22q-14 8 -9 24q9 28 15 59.5t4 70t-16 61.5q-19 30 -60 36q-10 1 -15 10q-14 26 -76 26
q-93 -2 -132 -52q-25 -34 -27 -90q-3 -52 16 -122q3 -15 -10 -23q-8 -5 -6 -22q2 -15 6 -24.5t6.5 -12.5t4.5 -3q8 -1 13 -6t6 -12q3 -26 16 -52.5t21 -32.5q11 -6 11 -18v-19q0 -42 -2 -69q-1 -2 -2 -5q-6 -17 -18 -30.5t-32 -25t-34 -17.5t-42 -17q-78 -31 -109 -56
q-41 -33 -50 -82h755q9 0 15 -6t6 -14.5z" />
    <glyph glyph-name="uniE612" unicode="&#xe612;" 
d="M383 87q-8 0 -14 6t-6 14.5t6 14.5l273 278l-273 279q-6 6 -6 14.5t6 14.5t14.5 6t14.5 -6l288 -293q5 -6 5 -14.5t-5 -14.5l-288 -293q-6 -6 -15 -6z" />
    <glyph glyph-name="uniE613" unicode="&#xe613;" 
d="M788 580l-307 -399q-5 -7 -14 -8h-2q-8 0 -14 6l-162 154l-23 -30q-5 -6 -13.5 -7t-15 4t-8 13.5t4.5 14.5l36 48q6 7 15 8t15 -6l163 -154l293 381q5 7 13.5 8t15 -4t7.5 -13.5t-4 -15.5zM1024 384q0 -139 -70 -259q-5 -7 -13 -9.5t-15.5 2t-9.5 12.5t2 16
q65 110 65 238q0 96 -37 183q-36 85 -101 150t-150 101q-87 37 -183 37t-183 -37q-85 -36 -150 -101t-101 -150q-37 -87 -37 -183t37 -183q36 -85 101 -150t150 -101q87 -37 183 -37q88 0 170.5 32t147.5 91q6 6 14.5 5.5t14 -6.5t5.5 -14.5t-7 -14.5q-71 -65 -160 -99.5
t-185 -34.5q-104 0 -199 40q-92 39 -163 110t-110 163q-40 95 -40 199t40 199q39 92 110 163t163 110q95 40 199 40t199 -40q92 -39 163 -110t110 -163q40 -95 40 -199z" />
    <glyph glyph-name="uniE614" unicode="&#xe614;" 
d="M726 199q6 -6 6 -14.5t-6 -14.5t-14.5 -6t-14.5 6l-185 185l-185 -185q-6 -6 -14.5 -6t-14.5 6t-6 14.5t6 14.5l185 185l-185 185q-6 6 -6 14.5t6 14.5t14.5 6t14.5 -6l185 -185l185 185q6 6 14.5 6t14.5 -6t6 -14.5t-6 -14.5l-185 -185zM1024 384q0 -139 -70 -259
q-5 -7 -13 -9.5t-15.5 2t-9.5 12.5t2 16q65 110 65 238q0 96 -37 183q-36 85 -101 150t-150 101q-87 37 -183 37t-183 -37q-85 -36 -150 -101t-101 -150q-37 -87 -37 -183t37 -183q36 -85 101 -150t150 -101q87 -37 183 -37q88 0 170.5 32t147.5 91q6 6 14.5 5.5t14 -6.5
t5.5 -14.5t-7 -14.5q-71 -65 -160 -99.5t-185 -34.5q-104 0 -199 40q-92 39 -163 110t-110 163q-40 95 -40 199t40 199q39 92 110 163t163 110q95 40 199 40t199 -40q92 -39 163 -110t110 -163q40 -95 40 -199z" />
    <glyph glyph-name="uniE615" unicode="&#xe615;" 
d="M760 632q-26 63 -74 111t-111 74q-64 27 -134.5 27t-135.5 -27q-62 -26 -110 -74t-74 -111q-28 -64 -28 -134.5t28 -135.5q26 -62 74 -110t110 -74q65 -28 135.5 -28t134.5 28q63 26 111 74t74 110q27 65 27 135.5t-27 134.5zM656.5 281q-89.5 -90 -216 -90t-216.5 90
t-90 216.5t90 216t216.5 89.5t216 -89.5t89.5 -216t-89.5 -216.5zM955 -37q-6 -6 -14.5 -6t-14.5 6l-194 193q-6 6 -6 14.5t6 14.5t14.5 6t14.5 -6l194 -193q6 -6 6 -14.5t-6 -14.5z" />
    <glyph glyph-name="uniE616" unicode="&#xe616;" 
d="M514 405zM263 410q-2 2 -3 4t-2 5q2 -4 5 -9zM762 122q0 -1 -0.5 -1.5t-0.5 -1.5q0 1 1 3zM865 232q-42 0 -77.5 -21.5t-55.5 -56.5l-422 168q5 19 5 39q0 28 -10 54l360 195q21 -28 53 -44.5t69 -16.5q63 0 108 44.5t45 108t-45 108t-108 44.5t-108 -44.5t-45 -108.5
q0 -28 11 -55l-360 -195q-21 29 -53.5 46t-69.5 17q-63 0 -108 -44.5t-45 -108t45 -108t108 -44.5q41 0 76 20.5t56 54.5l423 -168q-5 -18 -5 -37q0 -63 45 -108t108 -45t108 45t45 108t-45 108t-108 45zM787 813q46 0 79 -32.5t33 -79t-33 -79t-79 -32.5t-79 32.5t-33 79
t33 79t79 32.5zM162 250q-46 0 -79 32.5t-33 79t33 79t79 32.5q30 0 55.5 -14.5t40.5 -39.5q2 -4 5 -9q11 -23 11 -49q0 -46 -33 -78.5t-79 -32.5zM865 -33q-46 0 -79 33t-33 79q0 21 8 40q0 1 1 3q12 31 40.5 50t62.5 19q46 0 79 -33t33 -79t-33 -79t-79 -33z" />
    <glyph glyph-name="uniE617" unicode="&#xe617;" 
d="M1004 467l-132 22q-12 40 -33 77l78 111q10 14 -2 26l-87 86q-12 13 -26 3l-109 -79q-37 21 -78 33l-23 132q-2 7 -7.5 12t-13.5 5h-122q-7 0 -13 -5t-7 -12l-22 -132q-41 -11 -78 -32l-108 78q-14 10 -27 -2l-86 -87q-12 -12 -3 -26l77 -109q-21 -38 -33 -79l-131 -22
q-7 -1 -12 -7t-5 -13v-123q0 -7 5 -12.5t12 -7.5l131 -23q12 -41 33 -79l-78 -108q-10 -14 2 -26l87 -87q12 -12 26 -2l110 77q37 -21 78 -33l22 -131q1 -8 7 -12.5t13 -4.5h122q8 0 13.5 4.5t7.5 11.5l23 133q41 12 78 32l110 -77q14 -10 26 2l87 87q12 12 2 26l-78 109
q20 37 32 78l132 23q8 2 12.5 7.5t4.5 12.5v123q0 7 -4.5 13t-12.5 7zM980 342l-128 -23q-13 -2 -17 -15q-12 -49 -37 -91q-7 -12 1 -23l76 -105l-62 -63l-107 75q-11 8 -23 1q-42 -26 -91 -38q-13 -3 -15 -16l-23 -129h-88l-21 128q-2 13 -15 16q-49 13 -92 38q-11 7 -22 0
l-106 -75l-62 63l75 104q7 11 0 23q-26 43 -38 92q-3 13 -16 15l-127 23v88l127 21q13 2 16 15q13 49 39 92q6 11 -1 22l-74 106l62 62l105 -75q11 -8 23 -1q42 26 91 38q13 3 16 17l20 127h88l23 -128q2 -13 15 -16q49 -12 91 -38q12 -7 23 0l105 76l63 -62l-76 -107
q-7 -11 0 -22q25 -43 37 -91q4 -13 17 -15l128 -21v-88zM695 385q0 -9 -6 -15t-14.5 -6t-14.5 6t-6 15q0 59 -42 101t-101 42t-101 -42t-42 -101t42 -101t101 -42q51 0 90 32q6 5 14.5 4t14 -7.5t4.5 -15t-8 -13.5q-50 -41 -115 -41q-76 0 -129.5 54t-53.5 130t53.5 129.5
t129.5 53.5t130 -53.5t54 -129.5z" />
    <glyph glyph-name="uniE618" unicode="&#xe618;" 
d="M979 480v304q0 30 -21 51t-50 21q-2 0 -78 -0.5t-151 -0.5h-75h-6q-5 1 -7 1q-50 0 -70 -20l-463 -464q-18 -17 -18 -41.5t18 -41.5l354 -355q17 -17 41.5 -17t42.5 17l463 464q10 9 14.5 23t5 24t0.5 29v6zM938 474q0 -39 -7 -47l-464 -464q-6 -5 -13.5 -5t-12.5 5
l-354 355q-6 5 -6 12.5t6 12.5l463 464q8 8 41 8h7h6h304q12 0 21 -9t9 -22v-18v-44v-58v-65v-59v-42v-18v-6zM860 676q-8 -3 -16 0t-11 11t-9 14q-12 12 -28.5 12t-28.5 -12t-12 -29t12 -29t28.5 -12t28.5 12q6 6 14.5 6t14.5 -6t6 -14.5t-6 -14.5q-24 -24 -57.5 -24
t-57.5 24t-24 58t24 57.5t57.5 23.5t57.5 -23q12 -12 18 -27q3 -8 0 -16t-11 -11z" />
    <glyph glyph-name="uniE619" unicode="&#xe619;" 
d="M667 380q13 0 23 10t10 23.5t-10 23.5t-23 10h-113l114 114q11 11 11 25t-11 23q-10 11 -24 11t-24 -11l-105 -105l-106 105q-10 11 -24 11t-23 -11q-11 -11 -11 -24.5t11 -23.5l113 -114h-112q-14 0 -24 -10t-10 -23.5t10 -23.5t24 -10h118v-75h-118q-14 0 -24 -10
t-10 -23.5t10 -23.5t24 -10h118v-85q0 -13 10 -23t24 -10t24 10t10 23v85h118q13 0 23 10t10 23.5t-10 23.5t-23 10h-118v75h118zM850 682q-10 11 -24 11.5t-24.5 -9t-11.5 -23t9 -24.5q74 -82 91.5 -192t-26.5 -211q-32 -71 -86.5 -123.5t-124.5 -79.5q-147 -57 -290 6
q-71 30 -123.5 86t-78.5 123t-26 143t31 147q31 70 85 122t125 79q71 28 146 26.5t145 -32.5q12 -5 26 0t19 19q5 12 0 25.5t-19 19.5q-82 36 -170.5 37.5t-172.5 -30.5q-83 -33 -146.5 -95t-99.5 -144q-36 -84 -36.5 -174t30 -169t92 -144.5t145.5 -102.5q86 -38 178 -38
q87 0 164 31q83 33 147 94.5t100 143.5q53 120 32.5 250t-106.5 228z" />
    <glyph glyph-name="uniE61A" unicode="&#xe61a;" 
d="M471 429h47v-557h-47v557zM112 209h800v-47h-800v47zM112 452h800v-46h-800v46zM494 391l-366 477l37 28l329 -429l330 429l37 -28z" />
    <glyph glyph-name="uniE61B" unicode="&#xe61b;" 
d="M962 576v151h-898v-653h898v343q0 8 6 14t14.5 6t14.5 -6t6 -14v-363q0 -9 -6 -15t-15 -6h-938q-9 0 -15 6t-6 15v693q0 9 6 15t15 6h938q9 0 15 -6t6 -15v-182q0 -11 -9 -17l-429 -287q-11 -8 -22 -1l-384 244q-7 5 -8.5 13t3 15t12.5 9t15 -2l373 -237z" />
    <glyph glyph-name="uniE61C" unicode="&#xe61c;" 
d="M997 441.5q0 -83.5 -38 -160.5q-36 -73 -101 -129t-149 -87q-87 -32 -182 -32q-8 0 -14 6t-6 14.5t6 14.5t14 6q88 0 168 29q77 28 136 80q60 52 92.5 118.5t32.5 139.5t-32.5 140t-92.5 119q-59 51 -136 79q-80 30 -168 30t-168 -30q-77 -28 -136 -79q-60 -52 -92 -119
t-32 -140q0 -89 47 -167q46 -77 127 -128q9 -6 9 -17q0 -58 -42 -133q51 8 98 40q32 22 51 45q5 7 13.5 7.5t15 -4.5t7.5 -13.5t-4 -15.5q-21 -26 -59 -52q-75 -52 -160 -52h-1q-13 1 -18.5 12t1.5 21q35 50 50 102q5 17 6 32q-82 55 -129 135q-53 88 -53 188q0 84 37 160
q36 74 101 130t149 87q87 31 182 31t182 -31q84 -31 149 -87t101 -130q38 -76 38 -159.5z" />
    <glyph glyph-name="uniE61D" unicode="&#xe61d;" 
d="M1024 384q0 -97 -35.5 -187t-101.5 -162h-1l-24 -24q-6 -5 -14 -5.5t-14 5.5q-31 27 -114 60q-28 11 -42 17.5t-34 17.5t-32 24.5t-18 30.5q-1 3 -1 6q-3 26 -2 69v19q0 12 10 18q8 5 20.5 31.5t15.5 52.5q1 7 6 12t13 6q2 0 4.5 3t6.5 12.5t6 24.5q2 17 -6 22
q-14 9 -9 24q15 45 19 92q5 65 -17 100q-18 30 -59 35q-10 2 -15 10q-14 26 -76 26q-93 -2 -132 -52q-25 -34 -27 -89q-3 -53 15 -123q4 -15 -9 -23q-8 -6 -6 -22q2 -15 6 -24.5t6.5 -12.5t4.5 -3q8 -1 13 -6t6 -12q3 -26 16 -52.5t21 -31.5q10 -6 10 -18v-19q1 -43 -2 -69
q0 -3 -1 -6q-6 -17 -18 -30.5t-32 -24.5t-34.5 -17.5t-41.5 -17.5q-31 -12 -46 -19q-8 -3 -16 0t-11.5 10.5t-0.5 15.5t11 11q16 8 48 20q31 12 46.5 19t32.5 19.5t23 25.5q2 24 2 62q0 4 -1 10q-14 14 -26.5 41t-18.5 53q-10 5 -18 15q-15 20 -19 56q-4 31 13 51
q-38 157 22 236q50 66 164 68q76 0 106 -38q53 -10 79 -53q19 -31 22 -77.5t-2.5 -76.5t-13.5 -59q16 -21 12 -51q-4 -36 -19 -56q-8 -10 -18 -15q-6 -28 -19 -56q-13 -25 -25 -38v-10q-1 -39 1 -62q9 -19 32.5 -32.5t69.5 -31.5q78 -31 112 -56l10 11q61 65 93.5 148
t32.5 172q0 96 -37 183q-36 85 -101 150t-150 101q-87 37 -183 37t-183 -37q-85 -36 -150 -101t-101 -150q-37 -87 -37 -183t37 -183q36 -85 101 -150t150 -101q87 -37 183 -37q122 0 229 59q7 4 15 2t12.5 -9.5t2 -16t-9.5 -12.5q-116 -64 -249 -64q-104 0 -199 40
q-92 39 -163 110t-110 163q-40 95 -40 199t40 199q39 92 110 163t163 110q95 40 199 40t199 -40q92 -39 163 -110t110 -163q40 -95 40 -199z" />
    <glyph glyph-name="uniE61E" unicode="&#xe61e;" 
d="M802 610.5q0 -25.5 -18 -43.5t-43.5 -18t-43.5 18t-18 43.5t18 43.5t43.5 18t43.5 -18t18 -43.5zM983 247v543h-942v-779h942v44l-287 300l-87 -87l-62 -62q-6 -6 -14.5 -6t-14.5 6t-6 14.5t6 14.5l48 48l-198 216l-227 -213q-6 -6 -14.5 -6t-14.5 6.5t-5.5 15t6.5 13.5
l242 228q6 6 14.5 5.5t14.5 -6.5l211 -230l87 87q6 6 14.5 6t14.5 -6l307 -321q6 -6 6 -14v-73q0 -9 -6 -15t-14 -6h-984q-8 0 -14 6t-6 15v819q0 9 6 15t14 6h984q8 0 14 -6t6 -15v-563q0 -9 -6 -15t-14.5 -6t-14.5 6t-6 15z" />
    <glyph glyph-name="uniE61F" unicode="&#xe61f;" 
d="M549 203v-63q0 -8 -8 -8h-55q-8 0 -8 8v63q0 7 8 7h55q8 0 8 -7zM651 515q0 -44 -38 -96l-49 -67q-11 -15 -15 -26t-4 -29v-24q0 -7 -7 -7h-49q-7 0 -7 7v30q0 36 22 66l49 68q20 27 27.5 43t7.5 34q0 31 -20 49.5t-52 18.5q-62 0 -76 -69q-1 -7 -8 -6l-46 8q-7 1 -6 8
q8 54 44.5 85.5t93.5 31.5q59 0 96 -35t37 -90zM1024 384q0 -139 -70 -259q-5 -7 -13 -9.5t-15.5 2t-9.5 12.5t2 16q65 110 65 238q0 96 -37 183q-36 85 -101 150t-150 101q-87 37 -183 37t-183 -37q-85 -36 -150 -101t-101 -150q-37 -87 -37 -183t37 -183q36 -85 101 -150
t150 -101q87 -37 183 -37q88 0 170.5 32t147.5 91q6 6 14.5 5.5t14 -6.5t5.5 -14.5t-7 -14.5q-71 -65 -160 -99.5t-185 -34.5q-104 0 -199 40q-92 39 -163 110t-110 163q-40 95 -40 199t40 199q39 92 110 163t163 110q95 40 199 40t199 -40q92 -39 163 -110t110 -163
q40 -95 40 -199z" />
    <glyph glyph-name="uniE620" unicode="&#xe620;" 
d="M469 632q-3 -20 -18 -43t-24.5 -32.5t-17.5 -15.5q-6 -5 -13 -5q-10 0 -16 7q-5 6 -4.5 14.5t7.5 14.5q13 11 28 30.5t18 36.5q2 15 -2.5 24t-18.5 23q-28 29 -32 54q-5 17 -2 33.5t6 29t10.5 25t13.5 20t13 15t10 10t5 4.5q7 5 15 3.5t13.5 -8t4 -15t-7.5 -13.5
q-14 -11 -25 -28q-22 -33 -16 -68q2 -14 22 -34q12 -12 18 -20t11 -25t2 -37zM620 632q-3 -20 -18 -43t-24.5 -32.5t-17.5 -15.5q-6 -5 -13 -5q-9 0 -16 7q-5 6 -4.5 14.5t7.5 14.5q13 11 28 30.5t18 36.5q2 15 -2.5 24t-18.5 23q-28 29 -32 54q-4 17 -1.5 33.5t5.5 29
t10.5 25t13.5 20t13 15t10 10t5 4.5q7 5 15 3.5t13.5 -8t4.5 -15t-8 -13.5q-14 -10 -25 -28q-22 -33 -16 -68q2 -14 22 -34q12 -12 18 -20t11 -25t2 -37zM318 632q-3 -20 -18 -43t-24.5 -32.5t-17.5 -15.5q-6 -5 -13 -5q-10 0 -16 7q-5 6 -4.5 14.5t6.5 14.5q14 11 29 30.5
t18 36.5q2 15 -2.5 24t-18.5 23q-28 29 -32 54q-5 17 -2 33.5t6 29t10.5 25t13 20t13 15t10.5 10t5 4.5q6 5 14.5 3.5t14 -8t4 -15t-7.5 -13.5q-14 -11 -25 -28q-22 -33 -16 -68q2 -14 22 -34q11 -12 17.5 -20t11.5 -25t2 -37zM896 428q-46 0 -81 -31v76q0 9 -6 15t-14 6
h-737q-8 0 -14 -6t-6 -15v-225q0 -94 33 -166q26 -59 73 -100q54 -48 109 -61q2 -1 5 -1h306q2 0 4 1q63 12 124 58q54 41 85 99q38 72 38 167v55q2 4 2 7q0 33 23 56.5t56 23.5t56.5 -23.5t23.5 -56.5t-23.5 -56t-56.5 -23q-8 0 -14 -6t-6 -14.5t6 -14.5t14 -6
q50 0 85.5 35.5t35.5 85t-35.5 85t-85.5 35.5zM774 245q0 -84 -33 -147q-26 -50 -72 -85q-51 -39 -107 -52h-302q-46 14 -89 51q-40 36 -63 87q-30 64 -30 149v205h696v-208z" />
    <glyph glyph-name="uniE621" unicode="&#xe621;" 
d="M861 678h-115v21q0 8 -5 13t-12.5 5t-13 -5t-5.5 -13v-21h-397v21q0 8 -5 13t-12.5 5t-13 -5t-5.5 -13v-21h-114q-47 0 -79.5 -32.5t-32.5 -79.5v-578q0 -47 32.5 -79.5t79.5 -32.5h478h1q18 0 36 -4q41 -9 62 -32q5 -6 13 -6q7 0 12 5q6 5 6 12.5t-5 13.5q-19 21 -51 33
t-47.5 13t-26.5 1h-478q-32 0 -54 22t-22 54v578q0 32 22 54t54 22h114v-26q0 -8 5.5 -13t13 -5t12.5 5t5 13v26h397v-26q0 -8 5.5 -13t13 -5t12.5 5t5 13v26h115q31 0 53 -22t22 -54v-578q0 -32 -22 -54t-53 -22h-38q-8 0 -13 -5.5t-5 -13t5 -12.5t13 -5h38q46 0 79 32.5
t33 79.5v578q0 47 -33 79.5t-79 32.5zM408 255q37 24 57 48t20 61q0 43 -28.5 67.5t-71.5 24.5q-50 0 -77.5 -31.5t-24.5 -81.5h38q-1 32 15 55.5t47 23.5q26 0 43.5 -16t17.5 -41q0 -31 -17.5 -49.5t-63.5 -47.5q-41 -25 -63 -52.5t-26 -77.5h208v33h-164q2 8 5 15.5
t9.5 14.5t11 11.5t15.5 12t14.5 10t17.5 11t17 9.5zM633 166q-28 0 -46.5 16t-19.5 41h-39q1 -42 30 -66.5t72 -24.5q53 0 82 31.5t29 74.5q0 53 -29 81t-74 28q-39 0 -59 -23l-1 1l17 92h129v34h-157l-30 -166l33 -1q25 30 59 30q32 0 52 -20.5t20 -52.5q0 -36 -19.5 -55.5
t-48.5 -19.5z" />
    <glyph glyph-name="uniE622" unicode="&#xe622;" 
d="M512 799q-103 0 -196.5 -40t-161 -108t-108 -161.5t-40.5 -196t40.5 -196t108 -161.5t161 -108t196.5 -40t196.5 40t161 108t108 161.5t40.5 196t-40.5 196t-108 161.5t-161 108t-196.5 40zM527 -176v76q0 7 -5 12.5t-12.5 5.5t-13 -5.5t-5.5 -12.5v-75
q-120 5 -221.5 66.5t-162 163.5t-64.5 222h79q8 0 13 5t5 12.5t-5 13t-13 5.5h-79q5 120 65.5 221t162 162t221.5 66q-1 -1 -1 -2v-79q0 -8 5.5 -13t13 -5t12.5 5t5 13v79v2v1q121 -4 223.5 -64.5t164 -162.5t66.5 -223h-78q-7 0 -12.5 -5.5t-5.5 -13t5.5 -12.5t12.5 -5h78
q-4 -121 -65.5 -223.5t-164 -164t-224.5 -65.5zM707 450l-162 -113q-15 12 -35 12q-8 0 -17 -3l-144 205q-4 6 -11.5 7.5t-13.5 -3t-7.5 -11.5t3.5 -13l144 -206q-11 -15 -11 -33q0 -23 17 -40t40.5 -17t40 17t16.5 40q0 7 -2 15l162 113q7 5 8 12t-3 13t-11.5 7.5
t-13.5 -2.5zM510 271q-9 0 -15 6.5t-6 15t6 14.5t15 6t15 -6t6 -14.5t-6 -15t-15 -6.5z" />
    <glyph glyph-name="uniE623" unicode="&#xe623;" 
d="M512 789v-853v-21h32h203q9 0 15 6t6 15t-6 15t-15 6h-192v832h384q8 0 14.5 -6t6.5 -15v-89q0 -9 6 -15.5t15 -6.5t15.5 6.5t6.5 15.5v89q0 26 -19 45t-45 19h-854q-26 0 -45 -18.5t-19 -45.5v-87q0 -9 6.5 -15t15.5 -6t15 6t6 15v87q0 9 6 15t15 6h427zM320 -85h85
q9 0 15.5 6t6.5 15t-6.5 15t-15.5 6h-85q-9 0 -15 -6t-6 -15t6 -15t15 -6z" />
    <glyph glyph-name="uniE624" unicode="&#xe624;" 
d="M190 171v309q-49 -44 -126 -75v61q100 43 140 114h53v-409h-67zM420 226h204v-53h-287v39q44 77 126 138q100 71 93 112q-2 67 -73 67q-61 0 -79 -75l-63 16q28 114 154 114q124 -4 131 -114q10 -73 -96 -140q-79 -53 -110 -104zM674 271l68 14q14 -71 81 -71q75 2 77 73
q0 67 -95 67h-37v51h30q88 2 90 65q0 61 -65 61q-65 -2 -75 -69l-67 16q28 104 146 106q124 -4 130 -106q0 -75 -81 -95v-2q89 -15 95 -98q-6 -112 -150 -116q-124 -4 -147 104z" />
    <glyph glyph-name="uniE625" unicode="&#xe625;" 
d="M177 79q-6 -7 -6 -15.5t6.5 -14.5t15 -6t14.5 6l619 640q6 7 6 15.5t-6.5 14.5t-15.5 6t-15 -6zM795 49q6 -6 15 -6t15.5 6t6.5 14.5t-6 15.5l-619 640q-6 6 -14.5 6t-15 -6t-6.5 -14.5t6 -15.5z" />
    <glyph glyph-name="uniE626" unicode="&#xe626;" 
d="M874 641l-389 -506q-5 -7 -14 -8h-2q-8 0 -14 6l-210 199l-33 -42q-5 -6 -13.5 -7.5t-15 4t-7.5 14t4 14.5l46 60q6 8 15 8.5t16 -5.5l210 -200l375 488q5 7 13.5 8t15 -4t7.5 -13.5t-4 -15.5z" />
    <glyph glyph-name="uniE627" unicode="&#xe627;" 
d="M236 -27l-3 -1h464q9 0 15 -6t6 -14.5t-6 -14.5t-15 -6h-619h-1h-1q-2 0 -3 1h-1h-1v0l-1 1q-1 0 -2 1q-1 0 -2 1l-1 1l-3 3q-1 2 -2 3t-1 2v1q0 1 -1 1v2v3v0v1v1v2v1v1h1v1l40 152q2 5 6 9l633 627q6 6 14.5 6t14.5 -6t6 -14.5t-6 -14.5l-629 -623l-31 -113l114 30
l629 623q6 6 14.5 6t14.5 -6t6 -14.5t-6 -14.5l-634 -627q-3 -4 -9 -5zM922 648l4 4q4 4 8 9l4 4q30 29 30 70t-29.5 70t-70.5 29t-70 -29l-17 -17zM58 -48v-1v1zM58 -45v-2v2zM58 -51v2v-2zM59 -43q-1 0 -1 -1v1h1z" />
    <glyph glyph-name="uniE628" unicode="&#xe628;" 
d="M823 871h-592q-8 0 -14 -5.5t-6 -14.5v-934q0 -8 6 -14t14 -6h592q8 0 14 6t6 14v934q0 9 -6 14.5t-14 5.5zM803 122h-481q-8 0 -14 -6t-6 -14.5t6 -14.5t14 -6h481v-144h-551v894h551v-709zM527 9zM479 9.5q0 20.5 14 34.5t34 14t34.5 -14t14.5 -34.5t-14.5 -34.5
t-34.5 -14t-34 14t-14 34.5z" />
    <glyph glyph-name="uniE629" unicode="&#xe629;" 
d="M766 402l-369 218q-10 6 -20.5 0t-10.5 -18v-450q0 -12 11 -18q4 -3 10 -3q5 0 10 4l369 232q10 6 10 17.5t-10 17.5zM407 189v378l309 -184zM1024 384q0 -139 -70 -259q-5 -7 -13 -9.5t-15.5 2t-9.5 12.5t2 16q65 110 65 238q0 96 -37 183q-36 85 -101 150t-150 101
q-87 37 -183 37t-183 -37q-85 -36 -150 -101t-101 -150q-37 -87 -37 -183t37 -183q36 -85 101 -150t150 -101q87 -37 183 -37q88 0 170.5 32t147.5 91q6 6 14.5 5.5t14 -6.5t5.5 -14.5t-7 -14.5q-71 -65 -160 -99.5t-185 -34.5q-104 0 -199 40q-92 39 -163 110t-110 163
q-40 95 -40 199t40 199q39 92 110 163t163 110q95 40 199 40t199 -40q92 -39 163 -110t110 -163q40 -95 40 -199z" />
    <glyph glyph-name="uniE62A" unicode="&#xe62a;" 
d="M686 832q-66 64 -159 64t-158 -64q-66 -64 -66 -155v-256q0 -91 66 -155q65 -64 158 -64t159 64t66 155v256q0 91 -66 155zM711 421q0 -73 -54 -125.5t-130 -52.5t-129.5 52.5t-53.5 125.5v256q0 74 53.5 126t129.5 52t130 -52t54 -126v-256zM854 529v-102
q0 -130 -89 -224t-217 -102v-144q0 -8 -6 -14t-14.5 -6t-14.5 6t-6 14v144q-129 8 -217.5 102t-88.5 224v102q0 8 6 14t14.5 6t14.5 -6t6 -14v-102q0 -118 83.5 -202t201.5 -84t202 84t84 202v102q0 8 6 14t14.5 6t14.5 -6t6 -14zM791 -103.5q0 -8.5 -6 -14.5t-14 -6h-488
q-8 0 -14 6t-6 14.5t6 14.5t14 6h488q8 0 14 -6t6 -14.5z" />
    <glyph glyph-name="uniE62B" unicode="&#xe62b;" 
d="M512 831q-91 0 -174 -35.5t-142.5 -95.5t-95 -142.5t-35.5 -173.5t35.5 -173.5t95 -142.5t142.5 -95.5t174 -35.5t174 35.5t142.5 95.5t95 142.5t35.5 173.5t-35.5 173.5t-95 142.5t-142.5 95.5t-174 35.5zM810 334h-348v249h50v-199h298v-50z" />
    <glyph glyph-name="uniE62C" unicode="&#xe62c;" 
d="M935 349q0 26 -28.5 51t-72.5 39q-3 1 -5.5 4t-5.5 12t3 24h-1q21 21 34.5 52.5t13.5 63.5q0 48 -28 75t-69 27t-69 -27t-28 -75q0 -32 13.5 -63.5t34.5 -52.5q6 -13 2 -22t-7.5 -12.5t-7.5 -5.5q-20 -7 -38 -17v25q0 26 -30 51t-75 40q-3 1 -6 3.5t-6 12t3 23.5
q21 22 34 53t13 63q0 48 -28 75t-69 27t-69 -27t-28 -75q0 -32 13.5 -63t34.5 -53q6 -13 2 -22t-7.5 -12.5t-7.5 -4.5q-42 -16 -71 -40.5t-29 -50.5v-26q-19 11 -40 18q-4 2 -7.5 5.5t-7.5 12.5t2 22q21 21 34.5 52.5t13.5 63.5q0 48 -28 75t-69 27t-69 -27t-28 -75
q0 -32 13.5 -63.5t34.5 -52.5h-1q6 -15 3 -24t-5.5 -12t-5.5 -4q-44 -14 -72.5 -39t-28.5 -51v-169h1v-1v-1l-1 -1q0 -67 69.5 -122.5t183.5 -81.5v51q0 29 31 55.5t75 42.5q5 2 8 8q3 8 0 19q-23 23 -36 56t-13 64q0 54 31 82.5t74 28.5t74 -28.5t31 -82.5q0 -31 -13 -63.5
t-35 -55.5q-7 -24 4 -28q45 -14 78 -40.5t33 -57.5v-51q112 26 181.5 81.5t69.5 122.5l-1 1v1v1h1v169z" />
    <glyph glyph-name="uniE62D" unicode="&#xe62d;" 
d="M614 224q-1 20 -1 86q12 6 27.5 38t18.5 62q12 1 22.5 14t14 43.5t-15.5 42.5q7 21 12.5 46.5t7.5 61.5t-4.5 65t-29.5 52t-61 28q-21 36 -95 36q-66 -1 -108.5 -24.5t-58.5 -64.5t-15.5 -90.5t16.5 -109.5q-19 -12 -15.5 -42.5t14 -43.5t22.5 -14q3 -30 19 -62t29 -38
q0 -66 -2 -86q-9 -22 -34 -39.5t-56 -28t-66 -26.5t-64.5 -34t-50 -50.5t-22.5 -76.5h788q-2 44 -22.5 76.5t-49.5 50.5t-64 34t-66 26.5t-56 28t-34 39.5z" />
    <glyph glyph-name="uniE62E" unicode="&#xe62e;" 
d="M936 422.5q0 -99.5 -56.5 -184t-154.5 -133.5t-213 -49q-59 0 -116 14q-2 -4 -8 -10t-25 -22t-40 -28t-53.5 -21.5t-66.5 -9.5q26 37 40.5 75.5t16 52t1.5 20.5q-80 51 -126.5 128.5t-46.5 167.5q0 99 56.5 183.5t154.5 133.5t213 49t213 -49t154.5 -133.5t56.5 -184z
" />
    <glyph glyph-name="uniE62F" unicode="&#xe62f;" 
d="M118 638l327 49v-275l-327 -7v233zM498 694l408 60l-3 -333l-405 -9v282zM118 130l327 -49v278h-327v-229zM498 71l405 -57v345h-405v-288z" />
  </font>
</defs>
</svg>
