<?xml version="1.0" standalone="no"?>
<!DOCTYPE svg PUBLIC "-//W3C//DTD SVG 1.1//EN" "http://www.w3.org/Graphics/SVG/1.1/DTD/svg11.dtd" >
<svg xmlns="http://www.w3.org/2000/svg">
<metadata>
Created by FontForge 20120731 at Thu Mar 31 03:43:43 2016
 By Ads
</metadata>
<defs>
<font id="iconfont" horiz-adv-x="1024" >
  <font-face 
    font-family="iconfont"
    font-weight="500"
    font-stretch="normal"
    units-per-em="1024"
    panose-1="2 0 6 3 0 0 0 0 0 0"
    ascent="896"
    descent="-128"
    x-height="792"
    bbox="0 -212 1024 896"
    underline-thickness="50"
    underline-position="-100"
    unicode-range="U+0078-E625"
  />
<missing-glyph horiz-adv-x="374" 
d="M34 0v682h272v-682h-272zM68 34h204v614h-204v-614z" />
    <glyph glyph-name=".notdef" horiz-adv-x="374" 
d="M34 0v682h272v-682h-272zM68 34h204v614h-204v-614z" />
    <glyph glyph-name=".null" horiz-adv-x="0" 
 />
    <glyph glyph-name="nonmarkingreturn" horiz-adv-x="341" 
 />
    <glyph glyph-name="x" unicode="x" horiz-adv-x="1001" 
d="M281 543q-27 -1 -53 -1h-83q-18 0 -36.5 -6t-32.5 -18.5t-23 -32t-9 -45.5v-76h912v41q0 16 -0.5 30t-0.5 18q0 13 -5 29t-17 29.5t-31.5 22.5t-49.5 9h-133v-97h-438v97zM955 310v-52q0 -23 0.5 -52t0.5 -58t-10.5 -47.5t-26 -30t-33 -16t-31.5 -4.5q-14 -1 -29.5 -0.5
t-29.5 0.5h-32l-45 128h-439l-44 -128h-29h-34q-20 0 -45 1q-25 0 -41 9.5t-25.5 23t-13.5 29.5t-4 30v167h911zM163 247q-12 0 -21 -8.5t-9 -21.5t9 -21.5t21 -8.5q13 0 22 8.5t9 21.5t-9 21.5t-22 8.5zM316 123q-8 -26 -14 -48q-5 -19 -10.5 -37t-7.5 -25t-3 -15t1 -14.5
t9.5 -10.5t21.5 -4h37h67h81h80h64h36q23 0 34 12t2 38q-5 13 -9.5 30.5t-9.5 34.5q-5 19 -11 39h-368zM336 498v228q0 11 2.5 23t10 21.5t20.5 15.5t34 6h188q31 0 51.5 -14.5t20.5 -52.5v-227h-327z" />
    <glyph glyph-name="uniE600" unicode="&#xe600;" 
d="M878 331h-327q-4 0 -8 -2t-6.5 -4.5t-4.5 -6.5t-2 -8v-327q0 -9 6 -15t15 -6h327q9 0 15 6t6 15v327q0 9 -6 15t-15 6zM858 3h-287v287h287v-287zM431 331h-328q-8 0 -14 -6t-6 -15v-327q0 -6 2.5 -10.5t7.5 -7.5t10 -3h328q8 0 14 6t6 15v327q0 6 -2.5 10.5t-7.5 7.5
t-10 3zM410 3h-286v287h286v-287zM431 780h-328q-8 0 -14 -6t-6 -14v-327q0 -6 2.5 -10.5t7.5 -7.5t10 -3h328q5 0 10 3t7.5 7.5t2.5 10.5v327q0 8 -6 14t-14 6zM410 453h-286v286h286v-286zM966 618l-215 215q-6 6 -14.5 6t-14.5 -6l-214 -215q-6 -6 -6 -14.5t6 -14.5
l214 -214q6 -6 14.5 -6t14.5 6l215 214q6 6 6 15q0 4 -2 7.5t-4 6.5zM737 418l-186 186l186 185l185 -185z" />
    <glyph glyph-name="uniE601" unicode="&#xe601;" 
d="M1007 22q-27 -39 -70 -84q-63 -65 -97 -65h-1h-1q-75 2 -162 43q-161 77 -358 274t-274 358q-41 88 -43 162v1q-1 15 12 37.5t53 60.5q45 44 84 70q11 8 24.5 12.5t29.5 3.5q13 -1 24 -7t18 -15q8 -11 68 -101.5t70 -107.5q10 -15 8.5 -35.5t-13.5 -42.5q-10 -20 -53 -94
q44 -63 137 -157q49 -48 91.5 -84.5t55.5 -45.5t19 -13q7 -4 9.5 -12.5t-2 -15.5t-12.5 -9.5t-16 2.5q-59 35 -174 149q-115 116 -149 174q-6 11 0 21q51 91 58 104t8.5 24t-1.5 13q-6 9 -37.5 57t-63 95.5t-36.5 54.5q-2 3 -7.5 4.5t-14.5 0t-18 -7.5q-36 -25 -78 -66
q-11 -10 -20 -19.5t-14 -16t-9 -12t-6 -9t-3 -6.5l-1 -3v-2q2 -67 39 -146q74 -155 266 -347t346 -266q80 -37 147 -39l15 6q21 14 53 47q41 43 66 78q9 16 8.5 26t-5.5 14q-7 4 -53.5 35t-95 63.5t-58.5 38.5q-10 5 -31 -4l-6 -3q-5 -2 -10.5 -2t-10 3t-7.5 8q-4 7 -1.5 15
t10.5 12q1 1 2.5 2t3 1.5t3.5 1.5q41 17 68 1q10 -6 59 -38.5t96 -63.5t55 -37q20 -14 22.5 -42t-16.5 -54zM1000 851v-259q0 -8 -6 -14t-14.5 -6t-14.5 6t-6 14v189l-226 -227q-6 -6 -14.5 -6t-14.5 6q-4 4 -5.5 9.5t0 10.5t5.5 9l226 227h-188q-9 0 -15 6t-6 14.5t6 14.5
t15 6h258z" />
    <glyph glyph-name="uniE602" unicode="&#xe602;" 
d="M1002 675h-234l-76 113q-6 9 -17 9h-326q-5 0 -9.5 -2t-7.5 -7l-76 -113h-234q-8 0 -14 -6t-6 -15v-652q0 -9 6 -15t14 -6h980q8 0 14 6t6 15v652q0 9 -6 15t-14 6zM981 22h-938v612h224q11 0 17 9l76 113h304l76 -113q3 -4 7.5 -6.5t9.5 -2.5h224v-612zM777 348v-8
q0 -5 -0.5 -9.5t-0.5 -9t-1 -9.5q-1 -8 -8 -13t-15.5 -4t-13.5 8t-4 15q2 15 2 30q0 93 -65 159q-21 21 -46.5 36t-54 22.5t-58.5 7.5q-93 0 -158.5 -66t-65.5 -159t65.5 -158.5t158.5 -65.5q87 0 151 59q5 4 10 5t10.5 -0.5t8.5 -5.5q6 -7 5.5 -15.5t-6.5 -13.5
q-37 -34 -83 -52t-96 -18q-110 0 -187.5 77.5t-77.5 187.5t77.5 188t187.5 78t187.5 -78t77.5 -188z" />
    <glyph glyph-name="uniE603" unicode="&#xe603;" 
d="M342 835h-245q-9 0 -15 -6t-6 -15v-245q0 -9 6 -15t15 -6h245q5 0 10 3t7.5 7.5t2.5 10.5v245q0 9 -6 15t-14 6zM321 589h-204v205h204v-205zM927 835h-245q-8 0 -14 -6t-6 -15v-245q0 -3 1 -6.5t3 -6t4.5 -4t5.5 -3t6 -1.5h245q9 0 15 6t6 15v245q0 9 -6 15t-15 6z
M907 589h-204v205h204v-205zM927 246h-245q-8 0 -14 -6t-6 -15v-265q0 -9 6 -15t14 -6h245q9 0 15 6t6 15v265q0 9 -6 15t-15 6zM907 -20h-204v225h204v-225zM948 456q0 -4 -2 -8t-4.5 -6.5t-6.5 -4t-8 -1.5h-830q-9 0 -15 6t-6 14.5t6 14.5t15 6h830q16 0 20 -16q1 -3 1 -5
zM482 811v-242q0 -9 -6 -15t-14.5 -6t-14.5 6t-6 15v242q0 3 0.5 5.5t2 4.5t3.5 4t4 3.5t5 2t5 0.5q9 0 15 -6t6 -14zM589 811v-242q0 -9 -6 -15t-14 -6q-6 0 -10.5 3t-7.5 7.5t-3 10.5v242q0 8 6 14t14.5 6t14.5 -6t6 -14zM426 225v-268q0 -8 -6 -14t-14.5 -6t-14.5 6
t-6 14v268q0 9 6 15t15 6q6 0 10.5 -3t7 -7.5t2.5 -10.5zM557 352v-395q0 -8 -6 -14t-14.5 -6t-14.5 6t-6 14v395q0 8 6 14t14.5 6t14.5 -6t6 -14zM166 352v-395q0 -2 -0.5 -4.5t-1.5 -4.5t-2.5 -3.5t-3.5 -3t-4 -2.5t-4 -1.5t-5 -0.5q-8 0 -14 6t-6 14v395q0 8 6 14t14.5 6
t14.5 -6t6 -14zM296 225v-268q0 -8 -6 -14t-14 -6q-3 0 -5 0.5t-4 1.5t-4 2.5t-3.5 3t-2.5 3.5t-1.5 4.5t-0.5 4.5v268q0 9 6 15t14.5 6t14.5 -6t6 -15zM948 352q0 -4 -2 -8t-4.5 -6.5t-6.5 -4.5t-8 -2h-245q-8 0 -14 6t-6 14.5t6 14.5t14 6h245q9 0 15 -6t6 -14zM431 352
q0 -9 -6 -15t-15 -6h-137q-8 0 -14 6t-6 15q0 4 1.5 8t4.5 6.5t6.5 4t7.5 1.5h137q6 0 10.5 -2.5t7.5 -7.5t3 -10z" />
    <glyph glyph-name="uniE604" unicode="&#xe604;" 
d="M854 610l-34 -664q-2 -21 -18 -36t-37 -15h-475q-22 0 -38 15t-17 36v1l-35 663q0 3 0.5 5.5t1.5 5t3 4.5t4 3.5t5 2t5 1.5q9 0 15 -5.5t7 -14.5l34 -663q2 -13 15 -13h475q5 0 9 4t5 9l34 663q1 9 7.5 14.5t14.5 5t14 -6.5t5 -15zM936 754.5q0 -8.5 -6 -14.5t-14 -6
h-266q-9 0 -15 6t-6 14v62q0 8 -6 14t-14 6h-164q-5 0 -10 -2.5t-7.5 -7.5t-2.5 -10v-62q0 -3 -1 -6t-3 -5.5t-4.5 -4.5t-5.5 -3t-7 -1h-265q-9 0 -15 6t-6 14q0 6 3 10.5t7.5 7.5t10.5 3h245v41q0 16 8 30.5t22.5 22.5t30.5 8h164q17 0 31 -8t22 -22.5t8 -30.5v-41h246
q8 0 14 -6t6 -14.5zM640 591v-573q0 -8 -6 -14t-14.5 -6t-14.5 6t-6 14v573q0 8 6 14t14 6q6 0 10.5 -2.5t7.5 -7.5t3 -10zM456 591v-573q0 -8 -6 -14t-15 -6q-4 0 -8 1.5t-6.5 4t-4 6.5t-1.5 8v573q0 4 1.5 7.5t4 6.5t6.5 4.5t8 1.5q6 0 10.5 -2.5t7.5 -7.5t3 -10z" />
    <glyph glyph-name="uniE605" unicode="&#xe605;" 
d="M267 265q-51 0 -87 -36t-36 -87t36 -87t86.5 -36t86.5 36t36 87q0 33 -16.5 61.5t-44.5 45t-61 16.5zM267 60q-23 0 -41.5 11t-29.5 30t-11 41q0 34 24 58t57.5 24t57.5 -24t24 -58q0 -17 -6.5 -32t-17.5 -26t-26 -17.5t-31 -6.5zM798 19q-50 0 -86 36t-36 87t36 87
t86.5 36t86.5 -36t36 -87q0 -25 -9.5 -47.5t-26 -39t-39.5 -26.5t-48 -10zM798 224q-34 0 -57.5 -24t-23.5 -58t23.5 -58t57.5 -24t58 24t24 58q0 13 -4 25.5t-11.5 22.5t-17.5 17.5t-22.5 12t-26.5 4.5zM594 613v-451v450v1zM1023 379v-237q0 -9 -6 -15t-14 -6h-41
q-9 0 -15 6t-6 14.5t6 14.5t15 6h20v212l-136 218h-211v-450q0 -9 -6 -15t-15 -6h-163q-8 0 -14 6t-6 15q0 3 1 6t3 5.5t4.5 4.5t5.5 3t6 1h143v573h-552v-573h51q5 0 8.5 -1.5t6.5 -4t4.5 -6.5t1.5 -8q0 -9 -6 -15t-15 -6h-72q-5 0 -10 3t-7.5 7.5t-2.5 10.5v613q0 9 6 15
t14 6h593q4 0 7 -1t5.5 -3t4.5 -4.5t3 -5.5t1 -7v-122h223q3 0 6.5 -1.5t6 -3.5t4.5 -5l145 -233q3 -5 3 -11zM818 395h-90l-1 108h91v-108z" />
    <glyph glyph-name="uniE606" unicode="&#xe606;" 
d="M701 747q0 -4 -2 -7.5t-4.5 -6.5t-6.5 -4.5t-8 -1.5q-5 0 -10 2.5t-7.5 7.5t-2.5 10t1.5 8.5t4 6.5t6.5 4.5t8 1.5q6 0 10.5 -3t7.5 -7.5t3 -10.5zM823 625q0 -6 -2.5 -10.5t-7.5 -7t-10 -2.5q-9 0 -15 5.5t-6 14t6 14.5t15 6q4 0 7.5 -1.5t6.5 -4t4.5 -6.5t1.5 -8z
M578 625q0 -9 -6 -14.5t-14.5 -5.5t-14.5 5.5t-6 14t6 14.5t15 6q5 0 10 -2.5t7.5 -7.5t2.5 -10zM517 564q0 -9 -6 -15t-14.5 -6t-14.5 6t-6 14.5t6 14.5t15 6q5 0 9.5 -2.5t7.5 -7.5t3 -10zM578 502q0 -8 -6 -14t-14 -6q-4 0 -8 1.5t-6.5 4.5t-4.5 6.5t-2 7.5q0 9 6 15
t15 6q5 0 10 -3t7.5 -7.5t2.5 -10.5zM639 686q0 -4 -1.5 -8t-4 -6.5t-6.5 -4t-8 -1.5q-6 0 -10.5 2.5t-7 7.5t-2.5 10q0 3 0.5 5.5t2 5t3 4t4 3t5 2.5t5.5 1q6 0 10.5 -3t7 -7.5t2.5 -10.5zM762 686q0 -8 -6 -14t-14.5 -6t-14.5 6t-6 14q0 3 1 6.5t3 6t4.5 4t5.5 3t6 1.5
q6 0 10.5 -3t7.5 -7.5t3 -10.5zM701 502q0 -5 -3 -9.5t-7.5 -7.5t-10.5 -3q-3 0 -6 1t-5.5 3t-4.5 4.5t-3 5.5t-1 6q0 9 6 15t14 6q4 0 8 -1.5t6.5 -4.5t4.5 -6.5t2 -8.5zM639 564q0 -4 -1.5 -8t-4 -6.5t-6.5 -4.5t-8 -2q-6 0 -10.5 3t-7 7.5t-2.5 10.5q0 4 1.5 7.5t4 6.5
t6.5 4.5t8 1.5q6 0 10.5 -2.5t7 -7.5t2.5 -10zM884 564q0 -4 -1.5 -8t-4 -6.5t-6.5 -4.5t-8 -2q-6 0 -10.5 3t-7.5 7.5t-3 10.5q0 2 1 5t2 5l4 4q1 2 3.5 3.5t5 2t5.5 0.5q5 0 10 -2.5t7.5 -7.5t2.5 -10zM639 441q0 -5 -2.5 -10t-7 -7.5t-10.5 -2.5q-8 0 -14 6t-6 14.5
t6 14.5t14 6q4 0 8 -2t6.5 -4.5t4 -6.5t1.5 -8zM762 441q0 -8 -6 -14t-14.5 -6t-14.5 6t-6 14.5t6 14.5t14 6q6 0 10.5 -3t7.5 -7.5t3 -10.5zM968 556l-252 255q-9 9 -20 13.5t-24 4.5q-8 0 -16 -2t-15 -6t-12 -10l-543 -548q-18 -19 -18 -44.5t18 -43.5l195 -197
q6 -6 14.5 -6t14.5 6t6 14.5t-6 14.5l-195 197q-4 4 -5.5 9.5t0 11t5.5 9.5l259 261q0 -1 1 -2l2 -2l290 -269l-213 -215q-10 -10 -4 -23q2 -5 7 -8.5t11 -3.5h375q9 0 15 6t6 14.5t-6 14.5t-15 6h-325l450 455q18 18 18 44t-18 44zM945 507q-4 16 -20 16q-8 0 -14 -6
t-6 -14.5t5.5 -14.5t14.5 -6l-41 -41q0 5 -1.5 8.5t-4.5 6t-6.5 4.5t-7.5 2q-9 0 -15 -6t-6 -14.5t6 -14.5t15 -6l-41 -41q0 4 -1.5 8t-4.5 6.5t-6.5 4t-8 1.5t-8 -1.5t-6.5 -4t-4.5 -6.5t-1.5 -8q0 -8 6 -14t15 -6l-41 -42v1q0 8 -6 14t-14.5 6t-14.5 -6t-6 -14.5t6 -14.5
t14 -6h1l1 1l-43 -43l1 2q0 8 -6 14t-15 6q-3 0 -5.5 -1t-5.5 -2l-34 32q4 5 4 12q0 8 -6 14t-14 6q-4 0 -7.5 -1t-5.5 -4l-34 31q6 6 6 15q0 6 -2.5 10.5t-7.5 7t-10 2.5q-3 0 -6 -0.5t-5.5 -2.5t-4.5 -4l-34 32q9 6 9 16q0 6 -3 10.5t-7.5 7.5t-9.5 3q-12 0 -18 -10
l-35 32q6 3 9 8t3 10q0 4 -1 7t-3 5.5t-4.5 4.5t-5.5 3t-7 1q-6 0 -11 -3.5t-8 -9.5l-11 11q-1 1 -3 2l256 259q3 3 6 5l8 1q9 0 15 -6l252 -255q4 -4 5.5 -9t0.5 -11zM701 380.5q0 -8.5 -6 -14.5t-14.5 -6t-14.5 6t-6 14.5t6 14t14.5 5.5t14.5 -5.5t6 -14zM823 502
q0 -8 -6 -14t-14 -6q-6 0 -10.5 3t-7.5 7.5t-3 9.5q0 9 6 15t15 6q4 0 7.5 -1.5t6.5 -4.5t4.5 -6.5t1.5 -8.5zM762 564q0 -9 -6 -15t-15 -6q-4 0 -7.5 2t-6.5 4.5t-4.5 6.5t-1.5 8q0 8 6 14t14 6q5 0 8.5 -1.5t6.5 -4.5t4.5 -6.5t1.5 -7.5zM701 625q0 -2 -0.5 -4t-1.5 -4
t-2 -3.5t-2.5 -3t-3 -2.5t-3.5 -2t-4 -1h-4q-8 0 -14 5.5t-6 14t6 14.5t14.5 6t14.5 -6t6 -14z" />
    <glyph glyph-name="uniE607" unicode="&#xe607;" 
d="M970 470l-241 -196l80 -300q2 -9 -2.5 -16t-12.5 -9q-2 -1 -5 -1q-16 0 -20 15l-83 313q-4 13 7 22l210 170l-271 15q-6 0 -10.5 3.5t-7.5 9.5l-97 253l-98 -253q-4 -12 -18 -13l-270 -15l210 -170q10 -9 7 -22l-70 -262l228 148q5 3 11 3t11 -3l113 -73q4 -3 6.5 -8
t2.5 -10.5t-3 -9.5q-5 -8 -13.5 -9.5t-15.5 3.5l-101 65l-261 -169q-12 -7 -23 1q-4 2 -6 5.5t-2.5 7.5t0.5 9l80 300l-241 196q-11 9 -7 22.5t18 13.5l311 17l112 290q5 13 19 13t19 -13l112 -290l310 -17q14 0 18.5 -13.5t-6.5 -22.5z" />
    <glyph glyph-name="uniE608" unicode="&#xe608;" 
d="M854 557zM874 863h-694q-8 0 -14 -6t-6 -15v-898q0 -4 1.5 -7.5t4.5 -6.5t6.5 -4.5t7.5 -1.5h694q3 0 6.5 1t6 3t4 4.5t2.5 5.5t1 6v898q0 9 -6 15t-14 6zM854 -35h-653v857h653v-857zM781 677.5q0 -8.5 -6 -14.5t-15 -6h-466q-8 0 -14 6t-6 15q0 5 2.5 10t7.5 7.5
t10 2.5h466q9 0 15 -6t6 -14.5zM781 550.5q0 -8.5 -6 -14.5t-15 -6h-466q-8 0 -14 6t-6 14.5t6 14.5t14 6h466q9 0 15 -6t6 -14.5zM781 424q0 -9 -6 -15t-15 -6h-466q-8 0 -14 6t-6 14.5t6 14.5t14 6h466q3 0 6.5 -1t6 -3t4 -4.5t3 -5.5t1.5 -6z" />
    <glyph glyph-name="uniE609" unicode="&#xe609;" 
d="M818 -29q-5 82 -67 133q-35 28 -119 61q-31 12 -46 19t-32 19.5t-23 25.5q-2 23 -2 62v3v3v3q13 13 25 38q6 11 11 25.5t8 30.5q10 5 18 15q3 4 5 7.5t4 7.5t4 9l2 10q2 5 3 10.5t2 11.5q3 30 -13 50q13 46 17 89q6 78 -22 124q-27 43 -79 53q-15 18 -42 28t-64 10
q-19 -1 -36 -3t-32.5 -6t-29 -9.5t-25.5 -13t-22 -16.5t-19 -20q-59 -79 -22 -235q-7 -9 -11 -22t-2 -29q4 -36 20 -56q8 -10 18 -15q5 -26 18 -53t27 -41v-3v-3v-3v-20q0 -9 -0.5 -20t-1.5 -22q-8 -19 -31.5 -32.5t-70.5 -31.5q-83 -33 -119 -61q-62 -51 -67 -133v-4
q0 -2 1 -4l2 -4q1 -2 2 -3q6 -7 15 -7h776q9 1 15 7t5 15zM45 -10q9 49 50 82q30 24 108 55q28 11 42.5 17.5t34.5 17.5t31.5 24.5t18.5 30.5q1 3 1 5q1 13 1.5 25.5t0.5 22.5v21v19q0 6 -3 10.5t-8 7.5q-8 6 -21 32t-16 52q0 7 -5.5 12.5t-12.5 5.5q-1 0 -2.5 1t-3.5 4
t-4 7t-4 11.5t-3 16.5q-1 7 0.5 12.5t3 7.5t2.5 2q13 8 9 23q-18 69 -16 122q1 28 8 50t20 39q38 50 131 52q61 0 76 -26q2 -4 6 -6.5t9 -3.5q20 -3 34.5 -11.5t24.5 -23.5q14 -24 16 -62t-3.5 -69.5t-15.5 -59.5q-5 -16 9 -24q8 -6 6 -22q-2 -15 -5.5 -24.5t-6.5 -12.5
t-5 -3q-5 0 -9 -2.5t-6.5 -6.5t-2.5 -9q-2 -11 -5 -23t-7.5 -22t-9 -18.5t-8.5 -13.5t-6 -7q-11 -6 -11 -18v-19v-21q0 -10 0.5 -22.5t1.5 -25.5q0 -2 1 -5q5 -11 11.5 -21t17.5 -18.5t20 -14.5t24.5 -13.5t25 -11.5t27.5 -11q78 -31 108 -55q40 -33 50 -82h-730zM1017 66
q-3 -3 -7 -4.5t-8 -1.5h-126q-3 0 -6 1t-5.5 3t-4.5 4.5t-3 5.5t-1 6q0 6 2.5 10.5t7.5 7.5t10 3h102q-4 19 -13.5 34.5t-25.5 28.5q-12 9 -29 18t-28.5 14t-32.5 14q-24 9 -36 14.5t-29 15t-27.5 21.5t-15.5 26q-1 3 -1 6q-2 22 -2 58v2v3v4v4v3q0 5 3 10t7 8t10 13
t11.5 25.5t7.5 29.5q2 17 18 18q9 3 12 31q1 11 -4 15q-14 9 -8 24q5 17 9 36t6 41.5t-1 44t-12 36.5q-8 12 -19.5 19t-27.5 9q-5 1 -9 3.5t-6 7.5q-3 3 -6.5 6t-9.5 5.5t-13 4.5t-15 2.5t-17 0.5h-8h-6q-4 0 -7.5 -0.5t-6.5 -1t-6 -1.5q-9 -1 -16 4t-8 13.5t3.5 15
t13.5 8.5q9 1 19.5 2t20.5 1h1q31 0 54 -8t36 -24q15 -3 27.5 -9t22.5 -15t18 -21q39 -64 5 -181q3 -4 5 -8.5t4 -10t2 -11.5v-13q-4 -31 -18 -49q-6 -8 -14 -13q-11 -50 -37 -78v-7q0 -32 1 -51q7 -15 27 -26t57 -25q70 -28 100 -52q54 -44 58 -115q0 -2 -0.5 -5t-1.5 -5.5
t-3 -4.5z" />
    <glyph glyph-name="uniE60A" unicode="&#xe60a;" 
d="M573 384q0 -25 -18 -43t-43 -18q-5 0 -9.5 0.5t-8.5 2t-9 3.5l-122 -123q-6 -6 -14.5 -6t-14.5 6t-6 14.5t6 14.5l123 123q-3 6 -4.5 12.5t-1.5 13.5q0 20 11 36t30 22v331q0 9 6 15t14 6t14 -6t6 -15v-331q19 -6 30 -22t11 -36zM1024 384q0 -139 -70 -259
q-5 -7 -13 -9.5t-15.5 2t-9.5 12.5t2 16q22 36 36 75t21.5 80t7.5 83q0 96 -37 183q-36 85 -101 150q-32 33 -70 58t-80 43q-87 37 -183 37q-48 0 -94 -9.5t-89 -27.5q-85 -36 -150 -101t-101 -150q-37 -87 -37 -183t37 -183q36 -85 101 -150t150 -101q87 -37 183 -37
q88 0 170.5 32t147.5 91q4 4 9.5 5t10.5 -0.5t9 -5.5q5 -6 5 -14.5t-7 -14.5q-28 -26 -59.5 -47t-65.5 -37.5t-70 -27.5t-74 -16.5t-76 -5.5q-104 0 -199 40q-92 39 -163 110t-110 163q-40 95 -40 199t40 199q20 46 47.5 87t62.5 76q71 71 163 110q95 40 199 40t199 -40
q92 -39 163 -110t110 -163q20 -47 30 -97t10 -102z" />
    <glyph glyph-name="uniE60B" unicode="&#xe60b;" 
d="M1015 353q-6 -6 -15 -6q-4 0 -7.5 1.5t-6.5 4.5l-65 68v-524q0 -8 -6 -14t-14 -6h-266q-8 0 -14 6t-6 14.5t6 14.5t14 6h245v545l-367 383l-367 -383v-545h224v306q0 8 6 14t15 6h244q9 0 15 -6t6 -14q0 -6 -3 -10.5t-7.5 -7.5t-10.5 -3h-224v-306q0 -5 -2.5 -10
t-7.5 -7.5t-10 -2.5h-266q-8 0 -14 6t-6 14v524l-65 -68q-6 -6 -14.5 -6t-14.5 6t-6 14.5t6 14.5l487 508q6 6 15 6h3l4 -2h2q2 -1 3.5 -2t2.5 -2l487 -508q4 -4 5.5 -9.5t0 -10.5t-5.5 -9z" />
    <glyph glyph-name="uniE60C" unicode="&#xe60c;" 
d="M671 87q-9 0 -15 6l-287 293q-6 6 -6 14.5t6 14.5l287 293q6 6 14.5 6t14.5 -6t6.5 -14.5t-5.5 -14.5l-274 -279l274 -278q6 -6 5.5 -14.5t-6.5 -14.5t-14 -6z" />
    <glyph glyph-name="uniE60D" unicode="&#xe60d;" 
d="M998 527q0 -76 -30 -147q-26 -63 -75 -122q-70 -83 -210 -179q-3 -2 -7 -3t-8 0t-7.5 3t-5.5 6q-5 7 -3.5 15t8.5 13q136 93 202 171q95 114 95 243q0 94 -66 160t-159 66q-38 0 -73 -12t-64.5 -35t-50.5 -54l-17 -26l-17 26q-31 47 -81 74t-107 27q-93 0 -159 -66
t-66 -160q0 -35 7.5 -69t18.5 -62.5t31 -58.5t37.5 -52t46 -48.5t48 -43t52.5 -40.5t50.5 -36t50.5 -34q75 -50 101 -72q7 -6 7.5 -14.5t-4.5 -14.5q-6 -8 -16 -8q-3 0 -6.5 1.5t-6.5 3.5q-25 21 -98 70q-50 33 -79.5 54t-75.5 58.5t-79 72.5q-59 64 -90 131
q-18 39 -27 79.5t-9 82.5q0 111 78 189t188 78q40 0 77.5 -11.5t70 -33t57.5 -52.5q38 46 91.5 71.5t113.5 25.5q110 0 188 -78t78 -189z" />
    <glyph glyph-name="uniE60E" unicode="&#xe60e;" 
d="M758 778q-96 96 -231 96t-230.5 -95.5t-95.5 -231.5q0 -101 49 -226q39 -99 107 -207q77 -124 155 -213q3 -3 7 -5t8 -2q10 0 16 7q78 91 155 215q67 110 106 208q50 124 50 223q0 66 -25 125.5t-71 105.5zM766 339q-37 -94 -103 -201q-25 -40 -54 -81.5t-47 -65.5
t-35 -44q-74 89 -136 189q-16 26 -31 52t-28 51t-24 49.5t-20 47.5q-23 59 -34.5 112t-11.5 99q0 119 83.5 202.5t201.5 83.5t202 -83.5t84 -202.5q-1 -92 -47 -208zM670 527q0 -6 -2.5 -10.5t-7.5 -7.5t-10 -3q-9 0 -15 6t-6 15q0 42 -30 72t-72 30t-72 -30t-30 -72t30 -72
t72 -30q22 0 42 9q8 3 16 0t11.5 -10.5t0.5 -15.5t-11 -11q-6 -3 -11.5 -5t-11.5 -3.5t-12 -2.5t-12 -1.5t-12 -0.5q-59 0 -101 42t-42 101t42 101t101 42t101 -42t42 -101z" />
    <glyph glyph-name="uniE60F" unicode="&#xe60f;" 
d="M916 605h-778q-6 0 -10.5 3t-7 7.5t-2.5 10.5q0 8 6 14t14 6h778q9 0 15 -6t6 -14q0 -6 -3 -10.5t-7.5 -7.5t-10.5 -3zM937 400.5q0 -8.5 -6 -14.5t-15 -6h-778q-8 0 -14 6t-6 14q0 6 2.5 10.5t7 7.5t10.5 3h778q9 0 15 -6t6 -14.5zM916 155h-778q-8 0 -14 6t-6 14
q0 3 0.5 5.5t2 5t3 4.5t4.5 3l4 2q3 1 6 1h778q16 0 20 -16l1 -5q0 -3 -1 -6t-3 -5.5t-4.5 -4.5t-5.5 -3t-7 -1z" />
    <glyph glyph-name="uniE610" unicode="&#xe610;" 
d="M278 408zM191.5 283q-48.5 0 -83 34.5t-34.5 83t34.5 83t82.5 34.5q16 0 31.5 -4.5t28 -12t23.5 -18.5t18.5 -23.5t12 -28t4.5 -31.5q0 -48 -34.5 -82.5t-83 -34.5zM191.5 477q-31.5 0 -54 -22.5t-22.5 -54t22.5 -54t54 -22.5t54 22.5t22.5 54t-22.5 54t-54 22.5z
M527 283q-24 0 -45.5 9.5t-37 25t-25 37.5t-9.5 45q0 49 34.5 83.5t82.5 34.5q12 0 23.5 -2.5t22 -7t20 -11t17.5 -14.5t14.5 -17.5t11 -19.5t6.5 -22t2 -24q0 -61 -50 -96q-31 -20 -67 -21zM527 477q-31 0 -53.5 -22.5t-22.5 -54t22.5 -54t54 -22.5t53.5 22.5t22 53.5
q0 11 -2.5 21t-7.5 18t-12 15t-15.5 12t-18.5 8t-20 3zM863 283q-10 0 -19 1.5t-18 4.5t-17 7.5t-15.5 9.5t-13.5 11.5t-11.5 14t-9.5 15.5t-7 16.5t-4.5 18t-1.5 18.5q0 49 34 83.5t82.5 34.5t83 -34.5t34.5 -83.5q0 -8 -1 -16.5t-3.5 -16.5t-10 -12t-15.5 -1q-3 0 -6 2
t-4.5 4.5t-3 5.5t-1.5 6.5t1 6.5t1.5 7t1 7.5t0.5 6.5q0 13 -4 24.5t-11 21t-16 16.5t-21 11t-24 4q-32 0 -54 -22.5t-22 -54t22 -54t54 -22.5h4q2 0 4.5 0.5t4.5 1.5h4l4 2h4l4 2l4 2q8 4 16 1t12 -11q2 -5 1.5 -10t-3.5 -9.5t-8 -7.5q-24 -12 -51 -12z" />
    <glyph glyph-name="uniE611" unicode="&#xe611;" 
d="M937 -27q0 -6 -3 -10.5t-7.5 -7.5t-10.5 -3h-778q-9 0 -15 6.5t-5 15.5q5 83 67 133q36 29 120 62q31 12 46.5 19t32.5 19t23 26q2 23 2 62v10q-7 7 -14 17.5t-13 23t-11 26.5t-8 27q-3 1 -6 3.5t-6 5.5l-6 6q-7 10 -12 24t-7 32q-4 30 13 51q-38 157 22 235
q25 33 66 50.5t98 18.5q76 0 106 -38q26 -5 46 -18.5t33 -34.5q15 -23 20.5 -54t2.5 -70q-2 -25 -7 -48t-10 -42q5 -6 8 -13t4.5 -17t0.5 -20q-1 -8 -2.5 -14.5t-3 -12t-4 -11t-5 -10t-5.5 -8.5q-4 -5 -8.5 -9t-9.5 -6q-5 -28 -19 -57q-13 -25 -25 -38v-4v-5q-1 -39 1 -62
q9 -19 32.5 -32.5t69.5 -31.5q34 -14 53 -22.5t46.5 -26t45.5 -37.5q5 -7 4.5 -15.5t-7 -14t-15 -4.5t-14.5 7q-14 17 -37.5 32t-41 22.5t-49.5 20.5q-28 11 -42 17t-34 17.5t-32 25t-18 30.5q-1 2 -1 5q-3 27 -2 69v11v8q0 12 11 18q7 6 19.5 32.5t15.5 52.5q1 7 6.5 12
t12.5 6q2 0 5 3t6.5 12.5t5.5 24.5q1 7 -1 12.5t-3 7t-2 2.5q-14 8 -9 24q9 28 15 59.5t4 70t-16 61.5q-19 30 -60 36q-5 1 -8.5 3.5t-6.5 6.5q-14 26 -76 26q-93 -2 -132 -52q-25 -34 -27 -90q-1 -26 3 -57t13 -65q3 -15 -10 -23q-8 -5 -6 -22q2 -15 6 -24.5t6.5 -12.5
t4.5 -3q4 -1 7.5 -2.5t5.5 -3.5t4 -5.5t2 -6.5q3 -26 16 -52.5t21 -32.5q5 -2 8 -7t3 -11v-19v-17q0 -5 -0.5 -14.5t-1 -18.5t-0.5 -19q-1 -1 -1 -2.5t-1 -2.5q-6 -17 -18 -30.5t-32 -25t-34 -17.5t-42 -17q-26 -10 -40 -16t-34.5 -17t-34.5 -23q-41 -33 -50 -82h755
q9 0 15 -6t6 -14z" />
    <glyph glyph-name="uniE612" unicode="&#xe612;" 
d="M383 87q-4 0 -7.5 1.5t-6.5 4.5q-6 6 -6 14.5t6 14.5l273 278l-273 279q-6 6 -6 14.5t6 14.5t14.5 6t14.5 -6l288 -293q5 -6 5 -14.5t-5 -14.5l-288 -293q-6 -6 -15 -6z" />
    <glyph glyph-name="uniE613" unicode="&#xe613;" 
d="M788 580l-307 -399q-5 -7 -14 -8h-2t-4 0.5t-3.5 1t-3.5 1.5t-3 3l-162 154l-23 -30q-5 -6 -13.5 -7t-15.5 4q-4 3 -6 8t-1.5 10.5t4.5 9.5l36 48q3 3 6.5 5t8.5 3h4l4 -2q2 0 4 -1t3 -3l163 -154l293 381q5 7 13.5 8t15.5 -4q4 -3 6 -8.5t1.5 -10.5t-4.5 -10zM1024 384
q0 -139 -70 -259q-5 -7 -13 -9.5t-15.5 2t-9.5 12.5t2 16q22 36 36 75t21.5 80t7.5 83q0 96 -37 183q-36 85 -101 150q-32 33 -70 58t-80 43q-87 37 -183 37q-48 0 -94 -9.5t-89 -27.5q-85 -36 -150 -101t-101 -150q-37 -87 -37 -183t37 -183q36 -85 101 -150t150 -101
q87 -37 183 -37q88 0 170.5 32t147.5 91q4 4 9.5 5t10.5 -0.5t9 -5.5q5 -6 5 -14.5t-7 -14.5q-28 -26 -59.5 -47t-65.5 -37.5t-70 -27.5t-74 -16.5t-76 -5.5q-104 0 -199 40q-92 39 -163 110t-110 163q-40 95 -40 199t40 199q20 46 47.5 87t62.5 76q71 71 163 110
q95 40 199 40t199 -40q92 -39 163 -110t110 -163q20 -47 30 -97t10 -102z" />
    <glyph glyph-name="uniE614" unicode="&#xe614;" 
d="M726 199q3 -3 4.5 -7t1.5 -8t-1.5 -7.5t-4.5 -6.5q-6 -6 -14.5 -6t-14.5 6l-185 185l-185 -185q-6 -6 -14.5 -6t-14.5 6t-6 14.5t6 14.5l185 185l-185 185q-3 3 -4.5 6t-2 6t0 6t2 6t4.5 5q3 3 6.5 4.5t7.5 1.5t8 -1.5t7 -4.5l185 -185l185 185q6 6 14.5 6t14.5 -6
t6 -14.5t-6 -14.5l-185 -185zM1024 384q0 -139 -70 -259q-5 -7 -13 -9.5t-15.5 2t-9.5 12.5t2 16q22 36 36 75t21.5 80t7.5 83q0 96 -37 183q-36 85 -101 150q-32 33 -70 58t-80 43q-87 37 -183 37q-48 0 -94 -9.5t-89 -27.5q-85 -36 -150 -101t-101 -150q-37 -87 -37 -183
t37 -183q36 -85 101 -150t150 -101q87 -37 183 -37q88 0 170.5 32t147.5 91q4 4 9.5 5t10.5 -0.5t9 -5.5q5 -6 5 -14.5t-7 -14.5q-28 -26 -59.5 -47t-65.5 -37.5t-70 -27.5t-74 -16.5t-76 -5.5q-104 0 -199 40q-92 39 -163 110t-110 163q-40 95 -40 199t40 199
q20 46 47.5 87t62.5 76q71 71 163 110q95 40 199 40t199 -40q92 -39 163 -110t110 -163q20 -47 30 -97t10 -102z" />
    <glyph glyph-name="uniE615" unicode="&#xe615;" 
d="M760 632q-9 21 -20 40.5t-24.5 37t-29.5 33.5q-24 24 -52 42.5t-59 31.5q-64 27 -135 27q-11 0 -22.5 -0.5t-23 -2t-23 -4t-22.5 -5.5t-22 -6.5t-22 -8.5q-31 -13 -58.5 -31.5t-51.5 -42.5q-48 -48 -74 -111q-28 -64 -28 -134.5t28 -135.5q26 -62 74 -110t110 -74
q32 -14 66 -21t69 -7q71 0 135 28q63 26 111 74q24 24 42.5 51.5t31.5 58.5q14 32 20.5 66t6.5 69q0 71 -27 135zM657 281q-17 -17 -37 -31.5t-41 -25t-43.5 -18t-46.5 -11.5t-49 -4q-126 0 -216 90t-90 216.5t90 216t216.5 89.5t216.5 -89q43 -44 66 -99.5t23 -117.5
q0 -126 -89 -216zM955 -37q-3 -3 -7 -4.5t-8 -1.5q-8 0 -14 6l-194 193q-6 6 -6 14.5t6 14.5t14.5 6t14.5 -6l194 -193q6 -6 6 -14.5t-6 -14.5z" />
    <glyph glyph-name="uniE616" unicode="&#xe616;" 
d="M514 405zM263 410l-3 4q-1 2 -2 5l2 -4q1 -2 3 -5zM762 122q0 -1 -1 -2v-1q0 1 1 3zM865 232q-42 0 -77.5 -21.5t-55.5 -56.5l-422 168q5 19 5 39q0 15 -2.5 28.5t-7.5 25.5l360 195q21 -28 53 -44.5t69 -16.5q42 0 77 20.5t55.5 55.5t20.5 76q0 64 -45 108.5t-108 44.5
t-108 -44.5t-45 -108.5v-9l2 -10q0 -5 1 -10l2 -8q1 -5 2.5 -9.5t3.5 -8.5l-360 -195q-21 29 -53.5 46t-69.5 17q-63 0 -108 -44.5t-45 -108t45 -108t108 -44.5q41 0 76 20.5t56 54.5l423 -168q-1 -5 -2 -9.5t-1 -8.5l-2 -10v-9q0 -63 45 -108t108 -45t108 45t45 108
q0 41 -20.5 76.5t-56 56t-76.5 20.5zM787 813q30 0 56 -15t41 -40.5t15 -56.5q0 -46 -33 -78.5t-79 -32.5q-30 0 -56 15t-41 40.5t-15 55.5q0 47 33 79.5t79 32.5zM162 250q-23 0 -43.5 8.5t-35.5 23.5t-24 36t-9 43q0 47 33 79.5t79 32.5q30 0 55.5 -14.5t40.5 -39.5
q2 -4 5 -9q3 -7 5.5 -15t4 -16.5t1.5 -17.5q0 -59 -49 -92q-29 -19 -63 -19zM865 -33q-46 0 -79 33t-33 79q0 10 2 20.5t6 19.5v1q0 1 1 2q8 20 23.5 35.5t36 24.5t43.5 9q46 0 79 -33t33 -79t-33 -79t-79 -33z" />
    <glyph glyph-name="uniE617" unicode="&#xe617;" 
d="M1004 467l-132 22q-12 40 -33 77l78 111q4 6 3.5 13.5t-5.5 12.5l-87 86q-12 13 -26 3l-109 -79q-37 21 -78 33l-23 132q-1 4 -3 7t-4.5 5t-6 3.5t-7.5 1.5h-122q-4 0 -7.5 -1.5t-6 -3.5t-4.5 -5.5t-2 -6.5l-22 -132q-41 -11 -78 -32l-108 78q-14 10 -27 -2l-86 -87
q-12 -12 -3 -26l77 -109q-21 -38 -33 -79l-131 -22q-7 -1 -12 -7t-5 -13v-123q0 -7 5 -12.5t12 -7.5l131 -23q12 -41 33 -79l-78 -108q-10 -14 2 -26l87 -87q12 -12 26 -2l110 77q37 -21 78 -33l22 -131q1 -8 7 -12.5t13 -4.5h122q8 0 13.5 4.5t7.5 11.5l23 133q41 12 78 32
l110 -77q14 -10 26 2l87 87q12 12 2 26l-78 109q20 37 32 78l132 23q8 2 12.5 7.5t4.5 12.5v123q0 7 -4.5 13t-12.5 7zM980 342l-128 -23q-13 -2 -17 -15q-3 -12 -6.5 -24t-8.5 -23.5t-10.5 -22.5t-11.5 -21q-3 -6 -3 -12t4 -11l76 -105l-62 -63l-107 75q-11 8 -23 1
q-42 -26 -91 -38q-13 -3 -15 -16l-23 -129h-88l-21 128q-1 6 -5 10.5t-10 5.5q-49 13 -92 38q-11 7 -22 0l-106 -75l-62 63l75 104q7 11 0 23q-26 43 -38 92q-3 13 -16 15l-127 23v88l127 21q4 0 7.5 2.5t5.5 5.5t3 7q13 49 39 92q3 5 2.5 11t-3.5 11l-74 106l62 62l105 -75
q5 -3 11 -3.5t12 2.5q42 26 91 38q13 3 16 17l20 127h88l23 -128q1 -6 5 -10.5t10 -5.5q49 -12 91 -38q6 -4 12 -3.5t11 3.5l105 76l63 -62l-76 -107q-7 -11 0 -22q3 -6 6.5 -12.5t6.5 -12.5t6 -12.5t5.5 -13t5 -13.5t4.5 -13.5t3 -13.5q4 -13 17 -15l128 -21v-88zM695 385
q0 -6 -3 -10.5t-7.5 -7.5t-10.5 -3q-8 0 -14 6t-6 15q0 59 -42 101t-101 42t-101 -42t-42 -101t42 -101t101 -42q51 0 90 32q4 3 9.5 4t10.5 -1t8 -7q6 -6 5 -14.5t-8 -13.5q-50 -41 -115 -41q-76 0 -129.5 54t-53.5 130t53.5 129.5t129.5 53.5t130 -53.5t54 -129.5z" />
    <glyph glyph-name="uniE618" unicode="&#xe618;" 
d="M979 480v304q0 19 -9.5 35.5t-26 26.5t-35.5 10q-2 0 -78 -0.5t-151 -0.5h-75h-6q-5 1 -7 1q-50 0 -70 -20l-463 -464q-18 -17 -18 -41.5t18 -41.5l354 -355q17 -17 41.5 -17t42.5 17l463 464q10 9 14.5 23t5 24t0.5 29v6zM938 474v-20q0 -7 -2 -15.5t-5 -11.5l-464 -464
q-6 -5 -13.5 -5t-12.5 5l-354 355q-3 2 -4.5 5.5t-1.5 6.5q0 8 6 13l463 464q3 2 7 4t10 2.5t11.5 1t12.5 0.5h3h4h6h304q8 0 15 -4.5t11 -11.5t4 -15v-77v-151v-76v-6zM860 676q-8 -3 -16 0t-11 11t-9 14q-2 2 -4 3.5t-4.5 2.5t-4.5 2t-5 2t-5.5 1.5t-5.5 0.5
q-16 0 -28 -12t-12 -29t12 -29t28.5 -12t28.5 12q6 6 14.5 6t14.5 -6q3 -2 4 -5t1.5 -6t0 -6.5t-1.5 -6.5t-4 -5q-24 -24 -57.5 -24t-57.5 24t-24 58t24 58q7 7 16.5 12.5t20 8t20.5 2.5q34 0 58 -23q12 -12 18 -27q2 -6 1.5 -11t-4 -9.5t-8.5 -6.5z" />
    <glyph glyph-name="uniE619" unicode="&#xe619;" 
d="M667 380q13 0 23 10t10 24q0 9 -4.5 16.5t-12 12t-16.5 4.5h-113l114 114q11 11 11 25t-11 23q-10 11 -24 11t-24 -11l-105 -105l-106 105q-10 11 -24 11t-23 -11q-3 -3 -5.5 -6.5t-3.5 -7t-1.5 -7t0 -7.5t1.5 -7.5t3.5 -6.5t5.5 -6l113 -114h-112q-14 0 -24 -10
t-10 -23.5t10 -23.5t24 -10h118v-75h-118q-14 0 -24 -10t-10 -23.5t10 -23.5t24 -10h118v-85q0 -13 10 -23t24 -10q9 0 16.5 4.5t12.5 12t5 16.5v85h118q5 0 10 1.5t9.5 5t7.5 7.5t4.5 9t1.5 11q0 13 -10 23t-23 10h-118v75h118zM850 682q-10 11 -24 11.5t-24.5 -9
t-11.5 -23t9 -24.5q74 -82 91.5 -192t-26.5 -211q-32 -71 -86.5 -123.5t-124.5 -79.5q-147 -57 -290 6q-71 30 -123.5 86t-78.5 123t-26 143t31 147q15 35 36.5 65.5t48 56t58 45.5t67.5 34q71 28 146 26.5t145 -32.5q9 -3 17.5 -2t16 6.5t11.5 14.5q5 12 0 25.5t-19 19.5
q-82 36 -170.5 37.5t-172.5 -30.5q-83 -33 -146.5 -95t-99.5 -144q-24 -56 -32.5 -115.5t-1.5 -116.5t28 -111t54.5 -100.5t80 -84t102.5 -62.5q86 -38 178 -38q87 0 164 31q83 33 147 94.5t100 143.5q53 120 32.5 250t-107.5 228h1z" />
    <glyph glyph-name="uniE61A" unicode="&#xe61a;" 
d="M471 429h47v-557h-47v557zM112 209h800v-47h-800v47zM112 452h800v-46h-800v46zM494 391l-366 477l37 28l329 -429l330 429l37 -28z" />
    <glyph glyph-name="uniE61B" unicode="&#xe61b;" 
d="M962 576v151h-898v-653h898v343q0 8 6 14t14 6q4 0 7 -1t5.5 -3t4.5 -4.5t3 -5.5t1 -6v-363q0 -3 -1 -6t-2 -5t-3 -4t-5 -3l-4 -2q-3 -1 -6 -1h-938q-4 0 -8 1.5t-7 4.5t-4.5 6.5t-1.5 8.5v693q0 9 6 15t15 6h938q9 0 15 -6t6 -15v-182q0 -11 -9 -17l-429 -287
q-11 -8 -22 -1l-384 244q-4 3 -6.5 8t-2.5 10.5t3 9.5q5 7 13 9t15 -2l373 -237z" />
    <glyph glyph-name="uniE61C" unicode="&#xe61c;" 
d="M997 441q0 -83 -38 -160q-36 -73 -101 -129t-149 -87q-43 -16 -89 -24t-93 -8q-4 0 -8 1.5t-6.5 4.5t-4 6.5t-1.5 8.5q0 3 1 6t3 5.5t4.5 4.5t5.5 3t6 1q88 0 168 29q77 28 136 80q20 17 37 36t31 39.5t24.5 42.5t17.5 45t11 47t4 48q0 73 -32.5 140t-92.5 119
q-59 51 -136 79q-80 30 -168 30t-168 -30q-38 -14 -72 -34t-64 -45q-40 -35 -68 -76.5t-42 -87.5t-14 -95q0 -89 47 -167q46 -77 127 -128q9 -6 9 -17q0 -58 -42 -133q51 8 98 40q32 22 51 45q5 7 13.5 7.5t15 -4.5t7.5 -13.5t-4 -15.5q-21 -26 -59 -52q-75 -52 -160 -52h-1
q-13 1 -18.5 12t1.5 21q35 50 50 102q5 17 6 32q-82 55 -129 135q-53 88 -53 188q0 84 37 160q36 74 101 130q33 28 70.5 49.5t78.5 37.5q87 31 182 31q47 0 93 -7.5t89 -23.5q84 -31 149 -87q32 -28 57.5 -60.5t43.5 -69.5q13 -25 21 -51.5t12.5 -53.5t4.5 -55z" />
    <glyph glyph-name="uniE61D" unicode="&#xe61d;" 
d="M1024 384q0 -97 -35.5 -187t-101.5 -162h-1l-24 -24q-6 -5 -14 -5.5t-14 5.5q-31 27 -114 60q-22 9 -33.5 13.5t-29.5 14t-28 17.5t-20 20t-15 25q-1 3 -1 6q-3 26 -2 69v19q0 2 0.5 5t2 5t3.5 4l4 4q8 5 20.5 31.5t15.5 52.5q1 7 6 12t13 6q2 0 4.5 3t6.5 12.5t6 24.5
q2 17 -6 22q-14 9 -9 24q15 45 19 92q2 32 -2 57.5t-15 42.5q-18 30 -59 35q-5 1 -9 3.5t-6 6.5q-14 26 -76 26q-93 -2 -132 -52q-12 -17 -19 -39.5t-8 -49.5q-3 -53 15 -123q1 -3 1 -6.5t-1.5 -6.5t-3.5 -5.5t-5 -4.5q-8 -6 -6 -22q2 -15 6 -24.5t6.5 -12.5t4.5 -3
q8 -1 13 -6t6 -12q3 -26 16 -52.5t21 -31.5q3 -2 5.5 -5t3.5 -6.5t1 -6.5v-9v-10q1 -11 1 -17t-0.5 -15.5t-1 -18.5t-1.5 -18q0 -3 -1 -6q-6 -17 -18 -30.5t-32 -24.5t-34.5 -17.5t-41.5 -17.5q-31 -12 -46 -19q-8 -3 -16 0t-11.5 10.5t-0.5 15.5t11 11q16 8 48 20
q19 8 28 11.5t24 10.5t23 12.5t15.5 13.5t11.5 16q0 7 0.5 14t1 12t0.5 13v11v12q0 2 -0.5 4.5t-0.5 5.5q-14 14 -26.5 41t-18.5 53q-10 5 -18 15q-15 20 -19 56q-4 31 13 51q-38 157 22 236q50 66 164 68q25 0 45.5 -4.5t35.5 -12.5t25 -21q53 -10 79 -53q19 -31 22 -77.5
t-2.5 -76.5t-13.5 -59q16 -21 12 -51q-4 -36 -19 -56q-2 -2 -4 -4.5t-4.5 -4t-5 -3.5t-4.5 -3q-6 -28 -19 -56q-3 -5 -5.5 -10t-5.5 -10t-7 -10t-7 -8v-10q-1 -11 -1 -20t0.5 -20t1.5 -22q9 -19 32.5 -32.5t69.5 -31.5q78 -31 112 -56l10 11q41 43 69 95t42.5 109t14.5 116
q0 96 -37 183q-36 85 -101 150q-32 33 -70 58t-80 43q-87 37 -183 37q-48 0 -94 -9.5t-89 -27.5q-85 -36 -150 -101t-101 -150q-37 -87 -37 -183t37 -183q36 -85 101 -150t150 -101q87 -37 183 -37q122 0 229 59q7 4 15 2t13 -10q2 -5 2 -10t-3 -10t-7 -8
q-57 -31 -120.5 -47.5t-128.5 -16.5q-104 0 -199 40q-92 39 -163 110t-110 163q-40 95 -40 199t40 199q10 23 21.5 45t25.5 42t29.5 39t33.5 37q71 71 163 110q95 40 199 40t199 -40q31 -13 59 -29.5t54.5 -36.5t49.5 -44q71 -71 110 -163q13 -31 22 -64t13.5 -66.5
t4.5 -68.5z" />
    <glyph glyph-name="uniE61E" unicode="&#xe61e;" 
d="M802 610q0 -12 -5 -23.5t-13 -20t-19.5 -13t-23.5 -4.5q-10 0 -19.5 3t-17 8.5t-13.5 13t-9 17t-3 19.5q0 13 5 24t13 19.5t19.5 13.5t24.5 5q8 0 16 -2.5t14.5 -6.5t12.5 -9.5t10 -12.5t6 -14.5t2 -16.5zM983 247v543h-942v-779h942v44l-287 300l-87 -87l-62 -62
q-4 -4 -9.5 -5.5t-10.5 0t-9 5.5q-6 6 -6 14.5t6 14.5l48 48l-198 216l-227 -213q-6 -6 -14.5 -6t-14.5 6.5t-5.5 15t6.5 13.5l242 228q3 2 6.5 3.5t7.5 1.5q9 0 15 -6l211 -230l87 87q6 6 15 6q2 0 4 -0.5t3.5 -1.5t3.5 -2t3 -2l307 -321q6 -6 6 -14v-73q0 -9 -6 -15
t-14 -6h-984q-8 0 -14 6t-6 15v819q0 9 6 15t14 6h984q5 0 10 -3t7.5 -7.5t2.5 -10.5v-563q0 -6 -2.5 -10.5t-7.5 -7.5t-10 -3q-9 0 -15 6t-6 15z" />
    <glyph glyph-name="uniE61F" unicode="&#xe61f;" 
d="M549 203v-63q0 -8 -8 -8h-55q-4 0 -6 2t-2 6v63q2 6 8 7h55q3 0 4.5 -1t2.5 -2.5t1 -3.5zM651 515q0 -25 -9 -46.5t-29 -49.5l-49 -67q-11 -15 -15 -26t-4 -29v-24q0 -7 -7 -7h-49q-3 0 -5 2t-2 5v30q0 36 22 66l49 68q20 27 27.5 43t7.5 34q0 21 -9 36.5t-25.5 23.5
t-37.5 8q-62 0 -76 -69q-1 -7 -8 -6l-46 8q-4 0 -5.5 2.5t-0.5 5.5q5 35 23 61.5t47.5 41t67.5 14.5q29 0 54 -9.5t42.5 -26t27 -39.5t9.5 -50zM1024 384q0 -139 -70 -259q-5 -7 -13 -9.5t-15.5 2t-9.5 12.5t2 16q22 36 36 75t21.5 80t7.5 83q0 96 -37 183q-36 85 -101 150
q-32 33 -70 58t-80 43q-87 37 -183 37q-48 0 -94 -9.5t-89 -27.5q-85 -36 -150 -101t-101 -150q-37 -87 -37 -183t37 -183q36 -85 101 -150t150 -101q87 -37 183 -37q88 0 170.5 32t147.5 91q4 4 9.5 5t10.5 -0.5t9 -5.5q5 -6 5 -14.5t-7 -14.5q-28 -26 -59.5 -47
t-65.5 -37.5t-70 -27.5t-74 -16.5t-76 -5.5q-104 0 -199 40q-92 39 -163 110t-110 163q-40 95 -40 199t40 199q20 46 47.5 87t62.5 76q71 71 163 110q95 40 199 40t199 -40q92 -39 163 -110t110 -163q20 -47 30 -97t10 -102z" />
    <glyph glyph-name="uniE620" unicode="&#xe620;" 
d="M469 632q-2 -12 -8.5 -26t-13.5 -24t-16.5 -20t-13.5 -14t-8 -7q-6 -5 -13 -5q-5 0 -9 1.5t-7 5.5q-5 6 -4.5 14.5t7.5 14.5t16 15.5t18.5 24.5t11.5 27q2 15 -2.5 24t-18.5 23q-28 29 -32 54q-5 17 -2 33.5t6 29t10.5 25t13.5 20t13 15t10 10t5 4.5q7 5 15 3.5t14 -7.5
q3 -5 3.5 -10t-1.5 -10.5t-6 -8.5q-14 -11 -25 -28t-15 -34t-1 -34q2 -9 7 -16t15 -18q12 -12 18 -20t11 -25t2 -37zM620 632q-3 -20 -18 -43t-24.5 -32.5t-17.5 -15.5q-6 -5 -13 -5q-4 0 -8.5 1.5t-7.5 5.5q-5 6 -4.5 14.5t7.5 14.5q5 4 11.5 11t14 16t13.5 20t7 20
q0 10 0.5 14.5t-4 11t-7 10t-10.5 11.5q-28 29 -32 54q-2 16 -2 29.5t4 26.5t8 22.5t11 19.5t12 16t11 11.5t8 7.5l4 4q7 5 15 3.5t14 -7.5q3 -5 3.5 -10t-1.5 -10.5t-6 -8.5q-14 -10 -25 -28q-11 -17 -15 -34t-1 -34q2 -9 7 -16t15 -18q12 -12 18 -20t11 -25t2 -37z
M318 632q-2 -12 -8.5 -26t-14 -24t-16.5 -20t-13 -14t-8 -7q-6 -5 -13 -5q-5 0 -9 1.5t-7 5.5q-5 6 -4.5 14.5t6.5 14.5q14 11 29 30.5t18 36.5q2 15 -2.5 24t-18.5 23q-28 29 -32 54q-5 17 -2 33.5t6 29t10.5 25t13 20t13 15t10.5 10t5 4.5q6 5 14.5 3.5t13.5 -7.5
q4 -5 4.5 -10t-1.5 -10.5t-6 -8.5q-1 0 -1 -0.5t-1 -1.5t-2 -1.5t-3 -2.5l-3 -4l-4 -3q-2 -2 -3.5 -4.5t-4 -5t-3.5 -5.5q-11 -17 -15 -34t-1 -34q1 -4 2.5 -8t3 -6.5t4.5 -6.5t5 -7l7 -6q11 -12 17.5 -20t11.5 -25t2 -37zM896 428q-46 0 -81 -31v76q0 9 -6 15t-14 6h-737
q-8 0 -14 -6t-6 -15v-225q0 -94 33 -166q26 -59 73 -100q24 -21 52 -36.5t39 -19t18 -5.5q2 -1 5 -1h306q2 0 4 1q63 12 124 58q54 41 85 99q38 72 38 167v55q1 2 1.5 4t0.5 3q0 33 23 56.5t56 23.5q22 0 40.5 -10.5t29 -29t10.5 -40.5q0 -33 -23.5 -56t-56.5 -23
q-5 0 -10 -3t-7.5 -7.5t-2.5 -10.5q0 -8 6 -14t14 -6q33 0 61 16t44 44t16 60q0 50 -35.5 85.5t-85.5 35.5zM774 245q0 -84 -33 -147q-26 -50 -72 -85q-51 -39 -107 -52h-302q-46 14 -89 51q-40 36 -63 87q-30 64 -30 149v205h696v-208z" />
    <glyph glyph-name="uniE621" unicode="&#xe621;" 
d="M861 678h-115v21q0 4 -1.5 7.5t-3.5 5.5t-5.5 3.5t-7.5 1.5q-7 0 -12.5 -5t-5.5 -13v-21h-397v21q0 4 -1.5 7.5t-3.5 5.5t-5.5 3.5t-7.5 1.5q-7 0 -12.5 -5t-5.5 -13v-21h-114q-47 0 -79.5 -32.5t-32.5 -79.5v-578q0 -23 8.5 -44t23.5 -36t36 -23.5t44 -8.5h478h1h6
q3 0 12.5 -1t17.5 -3q41 -9 62 -32l2 -2l4 -2q1 -1 3 -1.5t4 -0.5q7 0 12 5q4 3 5.5 8t0.5 9.5t-5 8.5q-19 21 -51 33t-47.5 13t-26.5 1h-478q-32 0 -54 22t-22 54v578q0 16 6 30t16 24t24 16t30 6h114v-26q0 -8 5.5 -13t12.5 -5q5 0 9 2.5t6.5 6.5t2.5 9v26h397v-26
q0 -8 5.5 -13t12.5 -5q4 0 7.5 1.5t5.5 3.5t3.5 5.5t1.5 7.5v26h115q20 0 37.5 -10t27.5 -27.5t10 -38.5v-578q0 -32 -22 -54t-53 -22h-38q-3 0 -6 -1t-5 -2.5t-3.5 -4t-2.5 -5t-1 -5.5q0 -8 5 -13t13 -5h38q46 0 79 32.5t33 79.5v578q0 47 -33 79.5t-79 32.5zM408 255
q24 16 38 28t26.5 33.5t12.5 47.5q0 22 -8 39.5t-21.5 29t-31.5 17.5t-39 6q-33 0 -57 -14.5t-35.5 -40t-9.5 -58.5h38q-1 20 5 37.5t21 29.5t36 12q26 0 43.5 -16t17.5 -41q0 -31 -17.5 -49.5t-63.5 -47.5q-41 -25 -63 -52.5t-26 -77.5h208v33h-164q2 8 5 15.5t9.5 14.5
t11 11.5t15.5 12t14.5 10t17.5 11t17 9.5zM633 166q-28 0 -46.5 16t-19.5 41h-39q1 -28 15 -49t36.5 -31.5t50.5 -10.5q53 0 82 31.5t29 74.5q0 36 -14 61t-37 36.5t-52 11.5q-39 0 -59 -23l-1 1l17 92h129v34h-157l-30 -166l33 -1q25 30 59 30q32 0 52 -20.5t20 -52.5
q0 -36 -19.5 -55.5t-48.5 -19.5z" />
    <glyph glyph-name="uniE622" unicode="&#xe622;" 
d="M512 799q-186 0 -328 -121q-135 -115 -168 -288q-10 -48 -10 -96q0 -103 40.5 -196.5t108 -161.5t161 -108t196.5 -40t196.5 40t161 108t108 161.5t40.5 196t-40.5 196t-108 161.5t-161 108t-196.5 40zM527 -176v76q0 5 -2.5 9t-6.5 6.5t-9 2.5q-3 0 -6.5 -1.5t-6 -4
t-4 -5.5t-1.5 -7v-75q-120 5 -221.5 66.5t-162 163.5t-64.5 222h79q8 0 13 5t5 13q0 3 -1 5.5t-2.5 5t-3.5 4t-5 2.5t-6 1h-79q5 120 65.5 221t162 162t221.5 66q-1 -1 -1 -2v-79q0 -5 2.5 -9t6.5 -6.5t9 -2.5q4 0 7.5 1.5t5.5 4t3.5 5.5t1.5 7v79v2v1q121 -4 223.5 -64.5
t164 -162.5t66.5 -223h-78q-7 0 -12.5 -5.5t-5.5 -12.5q0 -5 2.5 -9t6.5 -6.5t9 -2.5h78q-4 -121 -65.5 -223.5t-164 -164t-224.5 -65.5zM707 450l-162 -113q-15 12 -35 12q-8 0 -17 -3l-144 205q-4 6 -11.5 7.5t-13.5 -3t-7.5 -11.5t3.5 -13l144 -206q-5 -7 -8 -15.5
t-3 -17.5q0 -23 17 -40t40 -17q16 0 29 8t20.5 21t7.5 28q0 3 -0.5 5.5t-0.5 4.5t-1 5l162 113q4 3 6 7.5t2 9t-3 8.5q-4 6 -11.5 7.5t-13.5 -2.5zM510 271q-6 0 -10.5 3t-7.5 8t-3 10q0 9 6 15t15 6t15 -6t6 -15q0 -5 -2.5 -10t-7.5 -8t-11 -3z" />
    <glyph glyph-name="uniE623" unicode="&#xe623;" 
d="M512 789v-853v-21h32h203q9 0 15 6t6 15t-6 15t-15 6h-192v832h384q8 0 14.5 -6t6.5 -15v-89q0 -9 6 -15.5t15 -6.5t15.5 6.5t6.5 15.5v89q0 17 -9 32t-23.5 23.5t-31.5 8.5h-854q-5 0 -11 -1t-11 -3t-10 -4.5t-9 -6.5t-7.5 -8t-6.5 -8.5t-5 -10t-3 -11t-1 -11.5v-87
q0 -6 3 -10.5t8 -7.5t11 -3q9 0 15 6t6 15v87q0 9 6 15t15 6h427zM320 -85h85q6 0 11 2.5t8 7.5t3 11q0 4 -2 8t-4.5 7t-6.5 4.5t-9 1.5h-85q-9 0 -15 -6t-6 -15q0 -6 2.5 -11t7.5 -7.5t11 -2.5z" />
    <glyph glyph-name="uniE624" unicode="&#xe624;" 
d="M190 171v309q-49 -44 -126 -75v61q100 43 140 114h53v-409h-67zM420 226h204v-53h-287v39q22 38 53.5 72.5t72.5 65.5q100 71 93 112q-2 67 -73 67q-61 0 -79 -75l-63 16q28 114 154 114q124 -4 131 -114q2 -15 -0.5 -29t-10 -28.5t-19.5 -28t-28.5 -27t-37.5 -27.5
q-39 -26 -66.5 -52.5t-43.5 -51.5zM674 271l68 14q14 -71 81 -71q75 2 77 73q0 67 -95 67h-37v51h30q88 2 90 65q0 61 -65 61q-65 -2 -75 -69l-67 16q28 104 146 106q124 -4 130 -106q0 -75 -81 -95v-2q89 -15 95 -98q-6 -112 -150 -116q-124 -4 -147 104z" />
    <glyph glyph-name="uniE625" unicode="&#xe625;" 
d="M177 79q-6 -7 -6 -15.5t6 -14.5q4 -4 9.5 -5.5t11 0t9.5 5.5l619 640q4 4 5.5 9.5t0 11t-6.5 9.5q-6 6 -15 6t-15 -6zM795 49q6 -6 15 -6t15 6q5 4 6.5 9.5t0 11t-5.5 9.5l-619 640q-4 4 -9.5 5.5t-11 0t-9.5 -5.5q-6 -6 -6 -14.5t6 -15.5z" />
  </font>
</defs>
</svg>
